<?xml version="1.0" standalone="no"?>
<!DOCTYPE svg PUBLIC "-//W3C//DTD SVG 1.1//EN" "http://www.w3.org/Graphics/SVG/1.1/DTD/svg11.dtd" >
<svg xmlns="http://www.w3.org/2000/svg">
<metadata>Generated by IcoMoon</metadata>
<defs>
<font id="icomoon" horiz-adv-x="1024">
<font-face units-per-em="1024" ascent="960" descent="-64" />
<missing-glyph horiz-adv-x="1024" />
<glyph unicode="&#x20;" horiz-adv-x="512" d="" />
<glyph unicode="&#xe900;" glyph-name="account" d="M813.7 749.699c-80.589 80.586-187.733 124.967-301.7 124.967-113.965 0-221.113-44.381-301.699-124.967s-124.967-187.735-124.967-301.699c0-113.967 44.381-221.111 124.967-301.7 80.586-80.585 187.735-124.966 301.699-124.966 113.967 0 221.111 44.382 301.7 124.966 80.585 80.589 124.966 187.733 124.966 301.7 0 113.965-44.382 221.113-124.966 301.699zM270.509 159.172c14.089 121.225 118.314 214.818 241.491 214.818 64.934 0 125.995-25.301 171.925-71.223 38.805-38.81 63.275-89.481 69.572-143.59-65.429-54.797-149.675-87.842-241.498-87.842s-176.061 33.041-241.491 87.838zM512 425.489c-71.454 0-129.59 58.138-129.59 129.588 0 71.459 58.136 129.59 129.59 129.59s129.591-58.132 129.591-129.59c0-71.45-58.138-129.588-129.591-129.588zM796.531 201.442c-12.74 51.371-39.309 98.731-77.252 136.674-30.729 30.729-67.085 53.786-106.731 68.228 47.663 32.324 79.040 86.933 79.040 148.732 0 99.023-80.563 179.59-179.588 179.59-99.023 0-179.59-80.567-179.59-179.59 0-61.829 31.407-116.459 79.108-148.775-36.478-13.295-70.234-33.847-99.277-60.907-42.057-39.168-71.263-89.109-84.805-143.91-57.35 66.112-92.103 152.329-92.103 246.515 0 207.695 168.971 376.666 376.666 376.666 207.697 0 376.666-168.971 376.666-376.666 0-94.204-34.765-180.442-92.134-246.558z" />
<glyph unicode="&#xe901;" glyph-name="add" d="M512 64c-212.077 0-384.001 171.921-384.001 384 0 212.077 171.924 384.001 384.001 384.001 212.083 0 384-171.924 384-384.001 0-212.083-171.921-384-384-384zM512 21.333c235.639 0 426.667 191.027 426.667 426.667 0 235.643-191.027 426.667-426.667 426.667-235.643 0-426.667-191.023-426.667-426.667 0-235.639 191.023-426.667 426.667-426.667zM682.667 448c0-11.78-9.553-21.333-21.333-21.333h-298.668c-11.783 0-21.333 9.553-21.333 21.333s9.55 21.333 21.333 21.333h298.664c11.785 0 21.338-9.553 21.338-21.333zM512 277.333c-11.78 0-21.333 9.553-21.333 21.333v298.668c0 11.783 9.553 21.333 21.333 21.333s21.333-9.55 21.333-21.333v-298.664c0-11.785-9.553-21.338-21.333-21.338z" />
<glyph unicode="&#xe902;" glyph-name="all" d="M512 874.667c-235.805 0-426.667-190.831-426.667-426.667 0-235.806 190.831-426.667 426.667-426.667 235.806 0 426.667 190.827 426.667 426.667 0 235.805-190.827 426.667-426.667 426.667zM512 71.531c-207.586 0-376.471 168.883-376.471 376.469s168.885 376.471 376.471 376.471c207.586 0 376.469-168.885 376.469-376.471s-168.883-376.469-376.469-376.469zM537.097 564.957c0 4.713-3.819 8.533-8.533 8.533h-33.126c-4.715 0-8.533-3.821-8.533-8.533v-233.915c0-4.71 3.819-8.533 8.533-8.533h108.42c4.715 0 8.533 3.823 8.533 8.533v33.131c0 4.715-3.819 8.533-8.533 8.533h-58.227c-4.71 0-8.533 3.819-8.533 8.533v183.718zM721.318 372.706c-4.715 0-8.533 3.819-8.533 8.533v183.718c0 4.713-3.823 8.533-8.533 8.533h-33.131c-4.71 0-8.533-3.821-8.533-8.533v-233.915c0-4.71 3.823-8.533 8.533-8.533h108.425c4.71 0 8.533 3.823 8.533 8.533v33.131c0 4.715-3.823 8.533-8.533 8.533h-58.227zM361.412 573.49c-41.519 0-75.294-33.775-75.294-75.293v-167.155c0-4.71 3.82-8.533 8.533-8.533h33.129c4.713 0 8.533 3.823 8.533 8.533v58.227c0 4.715 3.821 8.533 8.533 8.533h33.129c4.713 0 8.533-3.819 8.533-8.533v-58.227c0-4.71 3.821-8.533 8.533-8.533h33.13c4.715 0 8.533 3.823 8.533 8.533v167.155c0 41.518-33.775 75.293-75.294 75.293zM344.847 448c-4.713 0-8.533 3.819-8.533 8.533v41.664c0 13.837 11.259 25.097 25.098 25.097s25.098-11.26 25.098-25.097v-41.664c0-4.715-3.82-8.533-8.533-8.533h-33.129z" />
<glyph unicode="&#xe903;" glyph-name="arrow" d="M827.089 526.771c-10.607 0-20.638 6.511-24.576 17.012-43.273 115.476-160.009 193.037-290.5 193.037-130.496 0-247.232-77.562-290.503-193.037-5.146-13.548-20.165-20.532-33.818-15.335-13.548 5.095-20.48 20.219-15.334 33.82 50.885 135.798 187.366 227.066 339.655 227.066 152.286 0 288.768-91.267 339.652-227.066 5.146-13.601-1.788-28.724-15.334-33.82-3.098-1.152-6.144-1.677-9.242-1.677zM406.985 526.771h-210.051c-14.493 0-26.257 11.761-26.257 26.255v210.051c0 14.494 11.763 26.257 26.257 26.257s26.256-11.763 26.256-26.257v-183.795h183.795c14.494 0 26.257-11.763 26.257-26.256s-11.763-26.255-26.257-26.255zM512.013 106.667c-152.237 0-288.77 91.268-339.655 227.063-5.146 13.602 1.785 28.727 15.334 33.822 13.653 5.248 28.672-1.788 33.818-15.334 43.27-115.477 160.006-193.037 290.503-193.037 130.492 0 247.228 77.559 290.5 193.037 5.094 13.547 20.113 20.582 33.818 15.334 13.547-5.094 20.48-20.22 15.334-33.822-50.884-135.795-187.366-227.063-339.652-227.063zM827.089 106.667c-14.494 0-26.257 11.763-26.257 26.257v183.795h-183.795c-14.494 0-26.257 11.763-26.257 26.257s11.763 26.253 26.257 26.253h210.052c14.494 0 26.257-11.759 26.257-26.253v-210.052c0-14.494-11.763-26.257-26.257-26.257z" />
<glyph unicode="&#xe904;" glyph-name="arrow-left" d="M93.833 468.57l249.333 248.165c11.5 11.355 30.167 11.52 41.667 0.165s11.667-29.786 0.167-41.141l-199.5-198.629h723.667c16.333 0 29.5-13.001 29.5-29.129s-13.167-29.129-29.5-29.129h-723.667l199.5-198.63c11.5-11.354 11.333-29.786-0.167-41.139-11.5-11.358-30.167-11.191-41.667 0.162l-249.333 248.166c-11.334 11.354-11.334 29.786 0 41.139z" />
<glyph unicode="&#xe905;" glyph-name="arrow-right" d="M930.167 468.57l-249.335 248.165c-11.499 11.355-30.165 11.52-41.664 0.165-11.503-11.355-11.669-29.786-0.166-41.141l199.497-198.629h-723.665c-16.334 0-29.5-13.001-29.5-29.129s13.167-29.129 29.5-29.129h723.665l-199.497-198.63c-11.503-11.354-11.337-29.786 0.166-41.139 11.499-11.358 30.165-11.191 41.664 0.162l249.335 248.166c11.332 11.354 11.332 29.786 0 41.139z" />
<glyph unicode="&#xe906;" glyph-name="back" d="M432.9 448l238.673-234.953c14.793-14.562 14.793-38.234 0-52.791-14.793-14.562-38.839-14.562-53.628 0l-265.49 261.346c-14.829 14.562-14.829 38.234 0 52.796l265.49 261.348c14.788 14.561 38.835 14.561 53.628 0s14.793-38.232 0-52.793l-238.673-234.953z" />
<glyph unicode="&#xe907;" glyph-name="crab-gourd" d="M235.583 440.614c-41.952 0-81.868-18.082-109.528-49.613l-37.187-42.372c-5.181-5.905-4.597-14.891 1.306-20.070 2.701-2.377 6.048-3.533 9.375-3.533 3.951 0 7.882 1.638 10.694 4.838l37.194 42.377c22.257 25.374 54.389 39.927 88.146 39.927h65.611v-67.819c-34.279-4.578-66.298-21.581-89.403-47.932l-37.229-42.428c-5.181-5.905-4.597-14.891 1.306-20.070 2.701-2.377 6.048-3.537 9.375-3.537 3.951 0 7.889 1.643 10.695 4.843l37.236 42.436c17.711 20.198 41.946 33.476 68.021 37.85v-24.388c0-17.186 3.097-33.621 8.509-48.977-0.132-0.055-0.273-0.038-0.404-0.102-16.528-7.927-31.549-19.43-44.681-34.227l-37.229-42.432c-5.181-5.901-4.597-14.891 1.306-20.070 2.701-2.372 6.048-3.533 9.375-3.533 3.951 0 7.889 1.638 10.694 4.838l37.181 42.377c10.556 11.895 22.556 21.111 35.66 27.396l0.049 0.038c25.726-43.729 73.157-73.229 127.456-73.229h125.781c51.217 0 96.41 26.185 122.97 65.847 1.195-1.314 2.633-2.453 4.335-3.268 13.146-6.298 25.54-15.77 35.814-27.341l37.227-42.423c2.812-3.2 6.746-4.843 10.697-4.843 3.324 0 6.673 1.169 9.374 3.537 5.901 5.18 6.485 14.165 1.306 20.070l-37.278 42.479c-12.813 14.438-28.318 26.249-44.847 34.172-1.259 0.602-2.581 0.772-3.895 0.986 7.825 18.010 12.215 37.845 12.215 58.705v13.577c26.078-4.382 50.317-17.66 68.028-37.862l37.227-42.423c2.816-3.204 6.746-4.843 10.697-4.843 3.324 0 6.673 1.161 9.374 3.537 5.905 5.18 6.485 14.165 1.306 20.070l-37.222 42.415c-23.1 26.351-55.117 43.349-89.408 47.94v67.819h65.681c33.715 0 65.805-14.537 88.038-39.876l37.231-42.432c2.807-3.2 6.741-4.838 10.697-4.838 3.324 0 6.673 1.161 9.374 3.533 5.901 5.18 6.485 14.165 1.306 20.070l-37.231 42.432c-27.631 31.492-67.511 49.553-109.414 49.553h-66.334c-1.775 20.373-7.633 39.586-16.849 56.768 33.425 27.78 55.083 62.691 64.567 104.054 8.201 0.649 16.422 1.902 24.563 4.409 26.829 8.257 49.66 27.153 62.647 51.847 11.362 21.625 15.398 45.507 11.661 69.062-3.098 19.473-16.764 35.056-35.674 40.667-18.923 5.618-38.878 0.035-52.083-14.597-4.535-5.014-10.876-7.576-17.766-7.285-6.754 0.389-12.885 3.771-16.887 9.375-11.366 15.917-30.515 23.826-49.993 20.66-18.765-3.055-33.826-16.076-39.322-33.979-3.17-10.34-4.783-21.083-4.783-31.916 0-34.292 16.644-67.056 44.527-87.646 13.393-9.885 28.523-16.206 44.331-19.188-8.393-32.078-25.724-59.459-51.627-81.731-27.149 33.242-68.412 54.523-114.577 54.523h-125.781c-46.164 0-87.43-21.281-114.576-54.523-25.903 22.272-43.235 49.652-51.626 81.731 15.806 2.982 30.942 9.303 44.328 19.188 27.882 20.591 44.528 53.354 44.528 87.646 0 10.833-1.611 21.576-4.785 31.91-5.493 17.91-20.556 30.931-39.319 33.986-19.458 3.167-38.618-4.743-50.056-20.757-3.937-5.507-10.069-8.889-16.826-9.278-6.784-0.278-13.236 2.271-17.764 7.285-13.222 14.632-33.208 20.201-52.076 14.604-18.91-5.618-32.584-21.201-35.681-40.674-3.736-23.555 0.299-47.438 11.66-69.062 12.986-24.695 35.82-43.59 62.646-51.847 8.142-2.507 16.363-3.76 24.564-4.409 9.487-41.363 31.142-76.273 64.569-104.054-7.563-14.097-12.764-29.598-15.417-45.948h-67.695zM680.683 698.859c0 8 1.186 15.93 3.533 23.576 3.362 10.951 12.791 13.611 16.695 14.243 1.165 0.195 2.411 0.299 3.699 0.299 6.259 0 13.606-2.458 18.645-9.521 8.969-12.548 22.946-20.25 38.34-21.132 15.454-0.931 30.157 5.167 40.486 16.611 5.884 6.514 14.455 8.91 22.882 6.403 8.448-2.507 14.306-9.181 15.684-17.861 2.769-17.452-0.26-35.215-8.747-51.368-9.485-18.042-26.193-31.854-45.837-37.903-25.25-7.778-51.648-3.444-72.405 11.889-20.651 15.25-32.977 39.458-32.977 64.764zM192.096 660.108c-8.486 16.153-11.514 33.917-8.743 51.368 1.375 8.674 7.236 15.354 15.681 17.861 2.201 0.653 4.41 0.972 6.576 0.972 6.139 0 11.951-2.563 16.305-7.375 10.333-11.438 25.091-17.528 40.486-16.611 15.396 0.882 29.375 8.584 38.403 21.229 6.028 8.431 15.528 10.236 22.285 9.125 3.903-0.632 13.333-3.292 16.694-14.25 2.348-7.639 3.535-15.569 3.535-23.569 0-25.306-12.326-49.514-32.979-64.764-20.75-15.34-47.139-19.674-72.403-11.889-19.646 6.049-36.354 19.861-45.84 37.903zM449.109 536.372h125.781c65.873 0 119.471-53.599 119.471-119.472v-1.156l-0.034-0.171 0.034-0.171v-94.263l-0.030-0.115 0.030-0.166v-29.734c0-65.877-53.598-119.475-119.471-119.475h-125.781c-65.873 0-119.471 53.598-119.471 119.475v40.546l0.028 0.166-0.028 0.119v84.945c0 65.873 53.597 119.472 119.471 119.472z" />
<glyph unicode="&#xe908;" glyph-name="bonus" d="M799.787 402.385h-61.423c-6.084 0-12.169-1.545-17.664-4.058-6.673-2.901-14.716-9.664-32.576-34.014l-12.365-16.619h-21.193v-3.477c0 0 0.196-0.969 0.196-1.357v-23.962h28.258c4.71 0 9.028 2.125 11.776 5.99l16.678 22.613c15.701 21.257 21.001 24.734 21.001 24.734 1.963 0.969 3.925 1.353 5.888 1.545h52.006l-35.132-77.299c-2.743-5.026-6.473-9.468-10.987-12.753l-120.499-79.040c-4.907-2.901-10.594-4.446-16.286-4.834h-231.771c-3.533 0-7.065-1.353-9.616-3.669l-21.588-18.94-118.338 122.91 77.126 68.796c3.925 2.897 8.439 4.638 13.149 5.026h122.458c7.066-0.196 13.935-1.549 20.412-3.674l28.454-10.82c9.813-3.482 20.215-5.414 30.814-5.606h76.535c6.084 0 10.991-4.638 11.383-10.628v-37.299c-0.196-5.99-5.299-10.628-11.383-10.628 0 0-0.393 0-0.589 0h-152.29c-8.047 0-14.519-6.374-14.519-14.298s6.473-14.302 14.519-14.302h152.879c21.978 0 40.034 17.391 40.427 39.228v37.299c-0.393 21.645-18.449 39.232-40.427 39.232h-76.732c-6.869 0.192-13.739 1.545-20.412 3.669l-28.454 10.825c-9.813 3.477-20.215 5.41-30.618 5.602h-122.654c-11.775-0.384-23.354-4.638-32.577-12.173l-78.303-69.764c-17.073 13.141-39.249 14.106-53.576 2.317l-18.644-15.458c-6.084-5.026-6.869-14.11-1.766-20.1 2.551-2.897 6.084-4.83 9.812-5.022 3.925-0.388 7.654 0.772 10.598 3.285l18.644 15.458c3.336 2.897 12.56 2.125 19.821-5.41l150.915-156.919c6.28-6.767 6.28-17.203 0-23.774l-26.101-26.667c-5.691-5.606-5.495-14.686 0.196-20.292 2.747-2.705 6.476-4.058 10.205-4.058s7.654 1.545 10.598 4.446l26.101 26.667c16.485 17.007 17.074 43.482 2.159 61.457l16.877 14.878h226.473c11.379 0.388 22.37 3.674 32.183 9.664l120.691 79.232c9.028 6.379 16.486 14.882 21.393 24.738l39.053 85.995c3.533 6.959 3.14 15.27-1.178 21.837-4.514 6.571-11.972 10.244-20.019 10.052v-0.58zM813.329 751.398l21.393 61.454c1.963 5.604 0 11.982-4.514 15.654-4.71 3.865-11.187 4.445-16.486 1.353-0.196 0-24.529-13.141-35.913-2.319-2.748 2.705-6.477 4.058-10.206 4.058h-2.551c-3.925 0-7.458-1.546-10.206-4.058-11.183-10.822-35.52 2.126-35.716 2.126-7.066 3.865-15.893 1.546-19.819-5.218-2.159-3.672-2.551-7.923-1.178-11.788l21.389-61.454c-21.781-19.712-40.623-42.516-56.128-67.445l-0.981-1.546 1.178-1.353c5.888-6.184 11.58-12.561 16.879-19.325l2.355-2.899 1.766 3.092c14.916 26.089 33.754 49.472 55.932 69.571h51.614c24.137-22.224 78.302-79.040 74.573-142.234-3.337-48.893-41.801-87.348-91.452-91.214-2.355 0-4.71-0.192-7.066-0.192h-3.533c-2.355 0-4.71 0-7.066 0.192-8.043 0.58-16.090 2.125-23.744 4.83l-2.551 0.969-0.589-2.705c-1.57-7.731-3.925-15.27-6.673-22.421l-0.981-2.317 2.355-0.772c9.617-3.285 19.823-5.218 30.221-5.99 2.944 0 6.084-0.196 9.028-0.196h3.533c3.14 0 6.084 0 9.028 0.388 64.175 5.218 114.022 54.882 118.532 118.27 4.318 72.276-49.259 133.151-82.423 163.684v-0.193zM797.632 795.073l-12.169-34.785h-38.464l-12.169 34.785c10.795-1.546 21.585 0.387 31.202 5.604 9.617-5.024 20.608-6.957 31.206-5.604h0.393zM273.843 587.713c4.317-63.387 54.164-113.051 118.534-118.269 2.944 0 6.084-0.196 9.027-0.196h3.532c3.14 0 6.084 0 9.027 0.388 10.205 0.772 20.408 2.705 30.025 5.99l2.355 0.772-0.981 2.321c-2.944 7.343-5.103 14.878-6.673 22.417l-0.589 2.705-2.551-0.969c-7.65-2.509-15.698-4.25-23.744-4.638-2.355 0-4.71-0.192-7.065-0.192h-3.532c-2.355 0-4.71 0-7.065 0.192-49.651 4.062-88.116 42.324-91.452 91.217-3.729 63.194 50.24 120.010 74.575 142.234h51.616c22.37-20.098 41.212-43.482 55.927-69.571l1.766-3.092 2.355 2.899c5.299 6.571 10.991 13.141 16.879 19.325l1.178 1.353-0.981 1.546c-15.309 24.93-34.342 47.54-56.128 67.445l21.393 61.455c2.551 7.537-1.57 15.653-9.028 18.166-3.925 1.353-8.243 0.966-11.972-1.16-0.196 0-24.531-13.141-35.913-2.319-2.747 2.705-6.476 4.058-10.205 4.058h-2.551c-3.925 0-7.457-1.546-10.205-4.058-11.186-10.822-35.521 2.126-35.717 2.126-6.869 3.865-15.896 1.546-19.821-5.218-2.159-3.672-2.551-7.923-1.178-11.788l21.391-61.454c-33.166-30.534-86.742-91.409-82.424-163.685h0.196zM371.77 794.88c10.794-1.546 21.588 0.387 31.204 5.604 9.616-5.024 20.606-6.957 31.202-5.604l-12.166-34.785h-38.465l-12.168 34.785h0.393zM537.796 685.692c-33.165-30.534-86.741-91.408-82.423-163.683 4.318-63.39 54.165-113.054 118.532-118.272 2.944 0 6.084-0.192 9.028-0.192h3.533c3.14 0 6.084 0 9.028 0.192 64.175 5.218 114.018 54.882 118.532 118.272 4.318 72.274-49.259 133.149-82.423 163.683l21.393 61.454c2.551 7.537-1.57 15.654-9.028 18.166-3.925 1.353-8.243 0.966-11.972-1.16-0.196 0-24.529-13.141-35.913-2.319-2.748 2.705-6.477 4.058-10.206 4.058h-2.551c-3.925 0-7.458-1.546-10.206-4.058-11.183-10.822-35.52 2.126-35.716 2.126-7.066 3.865-15.898 1.546-19.819-5.218-2.159-3.672-2.551-7.923-1.178-11.788l21.389-61.454v0.193zM610.411 665.98c24.137-22.224 78.302-79.040 74.573-142.234-3.337-48.119-42.586-87.347-91.452-91.213-2.355 0-4.71-0.196-7.066-0.196h-3.533c-2.355 0-4.71 0-7.066 0.196-49.651 4.058-88.115 42.321-91.452 91.213-3.729 63.194 50.24 120.010 74.577 142.234h51.418zM603.934 694.582h-38.464l-12.169 34.785c10.795-1.546 21.585 0.387 31.202 5.604 9.617-5.024 20.608-6.957 31.202-5.604l-12.164-34.785h0.393zM542.899 561.044c0-14.494 11.972-26.282 26.688-26.282h27.87v-13.141h-39.838c-8.047 0-14.524-6.379-14.524-14.302s6.477-14.302 14.524-14.302h9.617v-9.468c0-7.923 6.473-14.302 14.519-14.494 3.925 0 7.458 1.545 10.206 4.058 2.748 2.705 4.318 6.379 4.318 10.244v9.468h3.533c14.716 0 26.688 11.789 26.688 26.283v17.973c0 14.494-11.972 26.282-26.688 26.282h-27.87v12.948h39.842c8.043 0 14.519 6.377 14.519 14.301s-6.477 14.301-14.519 14.301h-9.617v9.469c0 7.923-6.477 14.301-14.524 14.494-8.047 0-14.524-6.377-14.524-14.494v-9.469h-3.533c-14.716 0-26.688-11.788-26.688-26.282v-17.586zM430.447 642.21c8.047 0 14.524 6.377 14.524 14.301s-6.477 14.301-14.524 14.301h-9.614v9.469c0 7.923-6.476 14.301-14.522 14.301s-14.522-6.377-14.522-14.301v-9.469h-3.532c-14.719 0-26.69-11.788-26.69-26.282v-17.972c0-14.494 11.971-26.282 26.69-26.282h27.867v-13.141h-39.839c-8.046 0-14.522-6.377-14.522-14.301s6.476-14.301 14.522-14.301h9.616v-9.469c0-7.923 6.476-14.494 14.522-14.494 3.925 0 7.458 1.546 10.205 4.058 2.747 2.705 4.317 6.377 4.317 10.242v9.469h3.532c9.226 0 17.857 4.831 22.764 12.561v0.579c1.374 4.058 2.551 8.117 3.925 12.175v18.746c0 14.494-11.776 26.282-26.493 26.282h-27.867v13.141h39.837l-0.196 0.386zM769.566 694.582c-8.047 0-14.524-6.377-14.524-14.301v-9.469h-3.529c-14.72 0-26.692-11.788-26.692-26.282v-17.972c0-14.494 11.972-26.282 26.692-26.282h27.866v-13.141h-40.034c-5.103 0-9.813-2.705-12.561-7.15l-0.589-0.966 0.393-0.966c1.766-5.604 2.944-10.822 3.925-16.040v-0.966l1.178-0.58c2.355-1.353 4.907-2.126 7.654-2.126h9.617v-9.469c0-7.923 6.473-14.301 14.519-14.301s14.524 6.377 14.524 14.301v9.469h3.533c14.72 0 26.688 11.788 26.688 26.282v17.972c0 14.494-11.968 26.282-26.688 26.282h-27.87v13.141h39.842c8.043 0 14.519 6.377 14.519 14.301s-6.477 14.301-14.519 14.301h-9.617v9.469c0 7.923-6.477 14.301-14.524 14.301l0.196 0.193z" />
<glyph unicode="&#xe909;" glyph-name="rankings" d="M618.667 106.667c-11.776 0-21.333 9.557-21.333 21.333v298.667c0 11.755-9.579 21.333-21.333 21.333h-128c-11.755 0-21.333-9.579-21.333-21.333v-298.667c0-11.776-9.557-21.333-21.333-21.333s-21.333 9.557-21.333 21.333v298.667c0 35.285 28.715 64 64 64h128c35.285 0 64-28.715 64-64v-298.667c0-11.776-9.557-21.333-21.333-21.333zM832 106.667h-640c-11.776 0-21.333 9.557-21.333 21.333v85.333c0 35.285 28.715 64 64 64h170.667c11.776 0 21.333-9.557 21.333-21.333s-9.557-21.333-21.333-21.333h-170.667c-11.755 0-21.333-9.579-21.333-21.333v-64h597.333v170.667c0 11.755-9.579 21.333-21.333 21.333h-170.667c-11.776 0-21.333 9.557-21.333 21.333s9.557 21.333 21.333 21.333h170.667c35.285 0 64-28.715 64-64v-192c0-11.776-9.557-21.333-21.333-21.333zM446.976 533.333c-4.267 0-8.533 1.28-12.181 3.819-6.699 4.672-10.176 12.757-8.896 20.821l10.389 66.432-46.101 46.485c-5.632 5.675-7.616 14.037-5.141 21.632s9.003 13.184 16.896 14.443l62.4 9.984 27.712 59.989c3.499 7.509 10.987 12.331 19.243 12.395h0.149c8.213 0 15.68-4.715 19.243-12.117l28.523-59.563 62.528-9.045c7.915-1.152 14.528-6.635 17.131-14.208 2.581-7.573 0.725-15.957-4.843-21.717l-45.461-47.168 11.307-66.283c1.365-8.043-1.963-16.171-8.597-20.928-6.677-4.757-15.424-5.291-22.592-1.408l-55.829 30.251-55.424-31.104c-3.264-1.813-6.869-2.709-10.453-2.709zM449.771 671.403l24.427-24.619c4.779-4.821 6.976-11.605 5.931-18.325l-5.269-33.707 27.371 15.36c6.4 3.605 14.165 3.648 20.608 0.149l27.605-14.976-5.739 33.664c-1.131 6.677 0.96 13.504 5.675 18.389l24.085 24.981-32.619 4.715c-7.040 1.024-13.099 5.483-16.171 11.904l-13.888 28.949-13.461-29.141c-2.987-6.443-8.981-10.987-16-12.117l-32.555-5.227z" />
<glyph unicode="&#xe90a;" glyph-name="calendar" d="M335.16 460.928h-50.526c-13.080 0-23.684-12.403-23.684-27.703s10.604-27.708 23.684-27.708h50.526c13.080 0 23.684 12.407 23.684 27.708s-10.604 27.703-23.684 27.703zM335.16 342.72h-50.526c-13.080 0-23.684-12.407-23.684-27.708s10.604-27.703 23.684-27.703h50.526c13.080 0 23.684 12.403 23.684 27.703s-10.604 27.708-23.684 27.708zM335.16 224.508h-50.526c-13.080 0-23.684-12.403-23.684-27.703 0-15.305 10.604-27.708 23.684-27.708h50.526c13.080 0 23.684 12.403 23.684 27.708 0 15.3-10.604 27.703-23.684 27.703zM537.267 460.928h-50.53c-13.077 0-23.684-12.403-23.684-27.703s10.607-27.708 23.684-27.708h50.53c13.077 0 23.684 12.407 23.684 27.708s-10.607 27.703-23.684 27.703zM537.267 342.72h-50.53c-13.077 0-23.684-12.407-23.684-27.708s10.607-27.703 23.684-27.703h50.53c13.077 0 23.684 12.403 23.684 27.703s-10.607 27.708-23.684 27.708zM537.267 224.508h-50.53c-13.077 0-23.684-12.403-23.684-27.703 0-15.305 10.607-27.708 23.684-27.708h50.53c13.077 0 23.684 12.403 23.684 27.708 0 15.3-10.607 27.703-23.684 27.703zM739.371 460.928h-50.526c-13.082 0-23.684-12.403-23.684-27.703s10.603-27.708 23.684-27.708h50.526c13.082 0 23.684 12.407 23.684 27.708s-10.603 27.703-23.684 27.703zM739.371 342.72h-50.526c-13.082 0-23.684-12.407-23.684-27.708s10.603-27.703 23.684-27.703h50.526c13.082 0 23.684 12.403 23.684 27.703s-10.603 27.708-23.684 27.708zM739.371 224.508h-50.526c-13.082 0-23.684-12.403-23.684-27.703 0-15.305 10.603-27.708 23.684-27.708h50.526c13.082 0 23.684 12.403 23.684 27.708 0 15.3-10.603 27.703-23.684 27.703zM845.158 800.785h-56.841v46.176c0 15.301-10.603 27.706-23.684 27.706s-23.684-12.405-23.684-27.706v-46.176h-205.261v46.176c0 15.301-10.607 27.706-23.684 27.706-13.082 0-23.684-12.405-23.684-27.706v-46.176h-205.265v46.176c0 15.301-10.604 27.706-23.684 27.706s-23.684-12.405-23.684-27.706v-46.176h-56.842c-39.178 0-71.052-37.286-71.052-83.117v-613.216c0-45.833 31.874-83.119 71.052-83.119h666.314c39.181 0 71.053 37.286 71.053 83.119 0 17.882 0 597.655 0 613.216 0 45.83-31.872 83.117-71.053 83.117zM155.16 717.668c0 15.277 10.625 27.706 23.684 27.706h56.842v-46.176c0-15.301 10.604-27.706 23.684-27.706s23.684 12.404 23.684 27.706v46.176h205.265v-46.176c0-15.301 10.603-27.706 23.684-27.706 13.077 0 23.684 12.404 23.684 27.706v46.176h205.261v-46.176c0-15.301 10.603-27.706 23.684-27.706s23.684 12.404 23.684 27.706v46.176h56.841c13.060 0 23.684-12.429 23.684-27.706v-108.976h-713.683v108.976zM845.158 76.745h-666.314c-13.059 0-23.684 12.429-23.684 27.708v448.829h713.683v-448.829c0-15.279-10.624-27.708-23.684-27.708z" />
<glyph unicode="&#xe90b;" glyph-name="caret-down" d="M512 368.9l-234.953 238.673c-14.561 14.792-38.232 14.792-52.793 0s-14.561-38.837 0-53.629l261.348-265.488c14.562-14.831 38.234-14.831 52.796 0l261.346 265.488c14.562 14.792 14.562 38.837 0 53.629-14.558 14.792-38.229 14.792-52.791 0l-234.953-238.673z" />
<glyph unicode="&#xe90c;" glyph-name="caret-up" d="M512 527.1l-234.953-238.673c-14.561-14.793-38.232-14.793-52.793 0s-14.561 38.839 0 53.628l261.348 265.49c14.562 14.829 38.234 14.829 52.796 0l261.346-265.49c14.562-14.788 14.562-38.835 0-53.628-14.558-14.793-38.229-14.793-52.791 0l-234.953 238.673z" />
<glyph unicode="&#xe90d;" glyph-name="casino" d="M783.872 238.396c-35.682 10.197-71.36 20.514-107.042 30.831-1.263 0.371-3.669 1.050-4.429 1.975-6.451 8.158-12.779 16.375-19.422 25.084l-3.729 4.881h48.964c13.158 0 16.132 2.223 19.802 14.703 16.892 57.583 27.836 119.859 33.463 190.473 3.861 48.624 5.38 97.74 6.455 139.999 0.947 37.007-7.718 72.532-25.813 105.585-34.918 63.82-89.643 103.793-162.773 118.806-21.952 4.572-44.535 4.14-66.364 3.707h-1.583c-4.425-0.123-8.853-0.185-13.282-0.185-16.324-0.186-33.216-0.309-49.536-2.533-43.271-5.746-81.419-24.836-113.24-56.716-39.602-39.664-59.467-88.286-58.961-144.569 0.253-28.358 0.19-57.271 0.127-85.197v-37.687c-0.19-20.077-0.253-40.839 3.543-61.225 9.616-51.895 34.415-96.751 73.701-133.389 13.728-12.787 29.544-24.218 47.068-33.98-0.506-0.491-1.012-0.986-1.582-1.545-2.72-2.654-5.567-5.436-7.971-8.461-4.808-6.054-9.489-12.173-14.171-18.287-4.492-5.811-8.92-11.678-13.538-17.425-1.455-1.792-3.606-3.337-5.567-3.891-35.048-10.257-71.044-20.634-106.977-30.891-42.639-12.049-70.285-47.881-70.348-91.068 0-15.381 0-30.767 0-46.148v-33.361c0-10.445 0-20.945 0-31.386 0-8.713 5.251-14.583 13.348-14.95 4.049-0.124 7.529 0.986 10.059 3.332 2.847 2.658 4.365 6.673 4.365 11.554 0 16.004 0 32.064 0 48.068 0 20.574 0 41.207 0 61.781 0 32.064 18.789 56.777 50.167 66.103 8.287 2.475 16.638 4.821 24.925 7.168l20.054 5.683v-186.948c0-1.732 0-3.401 0.19-5.069 0.759-6.362 5.63-10.995 12.146-11.614 4.239-0.371 7.908 0.678 10.628 3.149 3.163 2.782 4.808 7.168 4.808 12.668v195.908l30.493 8.772c0.506-1.109 1.012-2.163 1.455-3.149l90.466-207.462c2.846-6.549 7.842-10.133 13.474-10.133 1.835 0 3.733 0.371 5.696 1.173 3.413 1.421 5.879 3.772 7.211 6.921 1.519 3.708 1.263 8.218-0.695 12.787l-46.942 107.627 3.543 1.545c4.112 1.792 8.097 3.52 12.018 5.436 12.591 6.054 25.118 12.169 37.581 18.411 2.338 1.173 2.91 1.114 4.365-0.311 4.932-4.693 11.388-6.857 19.106-6.98 8.73 0.124 17.459 0.064 26.189 0 7.782 0 13.79 2.227 18.598 6.861 1.583 1.545 2.342 1.604 4.873 0.367 13.538-6.669 27.076-13.282 40.742-19.955l11.827-5.743-32.96-75.499c-4.804-10.995-9.613-21.995-14.421-32.99-2.342-5.376-1.647-10.505 2.022-14.827 3.418-4.019 8.35-5.5 14.234-4.203 5.948 1.297 8.414 5.99 10.249 10.193 25.621 58.88 51.307 117.696 76.928 176.572l2.406 5.436c2.846 6.549 5.692 13.039 8.602 19.584l3.669 8.341c2.15-0.619 4.365-1.297 6.455-1.916 6.767-2.035 13.158-3.951 19.797-5.495 3.61-0.866 4.305-1.792 4.305-5.683-0.192-60.796-0.128-121.587-0.064-182.319v-7.475c0-2.594 0.128-5.376 0.883-7.97 1.647-5.871 6.14-9.267 12.527-9.638 6.455-0.371 11.959 3.337 13.73 9.020 0.819 2.658 0.947 5.559 0.947 8.034 0 51.648 0 103.36 0 155.008v31.633l12.715-3.648c11.072-3.149 21.828-6.178 32.58-9.451 30.686-9.207 49.728-34.475 49.728-65.86v-39.723c0-23.539 0-47.078 0-70.682 0-4.817 1.771-8.896 4.932-11.49 2.974-2.47 7.087-3.396 11.452-2.718 7.147 1.173 11.26 6.549 11.26 14.767 0 37.129 0 74.321 0 111.454 0 42.257-27.964 78.647-69.589 90.509l0.128-0.064zM607.433 199.539c0-6.613 0-13.222 0-19.836 0-1.357 0-2.159-0.128-2.654-0.444 0.183-1.139 0.431-2.278 0.986l-15.181 7.415c-11.324 5.559-22.647 11.123-34.035 16.435-2.278 1.050-2.594 2.163-2.342 5.005 0.064 0.862 0 1.728 0 2.594-0.124 2.594 0 3.584 2.091 4.57 11.068 5.193 21.952 10.564 32.896 15.94 5.564 2.782 11.196 5.5 16.828 8.218 1.011 0.495 1.643 0.742 2.022 0.866 0.064-0.435 0.128-1.173 0.128-2.47 0-6.737 0-13.47 0-20.267v-16.802zM416.948 216.465c0 6.797 0 13.594 0 20.326 0 1.297 0.126 1.975 0.19 2.411 0.379-0.124 1.075-0.371 2.151-0.866 5.63-2.718 11.197-5.5 16.829-8.218 10.944-5.376 21.888-10.748 32.96-15.94 2.022-0.926 2.214-1.792 1.899-4.57-0.064-0.926 0-1.916 0-2.906 0.188-2.594 0.188-3.46-1.835-4.386-17.335-8.154-34.355-16.619-50.295-24.525-1.076-0.495-1.645-0.683-1.772-0.742-0.063 0.247-0.253 0.866-0.19 2.223 0 6.797 0 13.653 0 20.45v16.742h0.064zM498.999 216.772v4.45h5.060c6.895 0 13.414 0 19.674-0.183 0.508-0.124 1.519-1.114 1.647-1.361 0.38-7.659 0.38-15.445 0-22.921-0.192-0.431-1.203-1.421-1.519-1.545-7.339-0.307-15.121-0.307-23.091 0-0.444 0.060-1.455 0.802-1.643 0.802-0.256 6.797-0.192 13.594-0.192 20.757h0.064zM389.112 226.906l-0.19 0.371c-4.175 9.574-8.35 19.089-12.399 28.668-0.063 0.431 0.317 1.728 0.886 2.53 5.187 6.861 10.375 13.658 15.626 20.514 3.796 4.941 7.592 9.946 11.387 14.95 1.202 1.545 1.455 1.421 1.455 1.421 0.127 0 0.57-0.124 1.392-0.678 16.954-12.544 33.973-24.96 50.988-37.44l21.636-15.876-1.579-1.425-13.982 6.861c-11.516 5.683-23.091 11.307-34.671 16.866-9.108 4.386-19.42 4.075-27.517-0.802-8.098-4.881-12.969-13.717-13.032-23.663 0-3.708 0-7.351 0-11.059v-1.237zM316.044 567.817c17.144 0.371 32.39 7.908 46.498 23.044 19.991 21.376 31.125 47.757 38.59 68.392 3.353 9.206 6.263 18.349 9.3 27.987 1.075 3.521 2.214 6.981 3.353 10.565 0.823-0.371 1.645-0.742 2.467-1.112 11.895-5.684 24.925-8.773 38.779-9.143 9.681-0.371 16.068 4.881 16.324 13.097 0.252 8.402-5.824 13.901-15.945 14.272-25.621 1.050-45.042 12.789-57.632 34.845-2.847 5.066-4.618 10.997-6.326 16.743l-0.949 3.212c-2.594 8.588-9.553 13.098-17.207 11.244-7.591-1.853-11.703-9.020-10.059-17.299 3.543-17.608 11.703-33.3 24.103-46.583 0.759-0.803 1.265-2.039 1.202-2.409-9.11-36.76-18.979-66.786-37.705-93.722-5.251-7.537-12.273-14.21-17.84-19.214-4.808-4.325-11.197-6.549-20.687-7.167-4.934-0.371-9.932-1.483-14.677-2.595-1.202-0.309-2.404-0.556-3.669-0.865v27.308c0 19.399 0 38.799 0 58.26 0.063 81.057 61.681 153.033 143.291 167.366 9.805 1.73 20.749 2.718 34.287 3.089 12.591 0.371 25.434 0.247 37.892 0.186 5.38 0 10.756-0.062 16.073-0.062 98.56 0 183.019-68.701 200.794-163.412 2.342-12.604 3.418-23.663 3.226-33.918l-0.124-5.931c-0.636-35.216-1.267-71.667-3.61-107.377-2.022-30.458-5.943-61.349-9.805-91.19l-0.695-5.5c-4.617-35.895-11.955-72.222-21.824-108.117-0.316-1.109-0.636-2.223-1.011-3.396l-85.026-0.188c0 1.916 0.064 3.831 0.124 5.811 0.128 6.114 0.32 12.416-0.316 18.594-0.947 9.020 1.899 14.272 10.884 20.203 49.344 32.435 77.559 77.905 83.947 135.053 11.008 98.976-58.833 188.621-158.976 204.128-9.429 1.483-19.106 2.1-28.407 2.718h-1.075c-4.177 0.371-8.098-0.927-11.008-3.398-2.782-2.409-4.365-5.746-4.553-9.453-0.192-4.016 1.011-7.475 3.541-10.070 2.658-2.718 6.451-4.201 11.072-4.263 30.81-0.371 58.833-8.032 83.187-22.797 45.299-27.493 71.616-67.095 78.131-117.756 10.816-84.025-49.788-163.167-135.13-176.385-87.492-13.594-167.772 39.723-186.624 123.994-1.139 5.069-1.772 10.381-2.341 15.569l-0.38 3.153c-1.265 10.564-6.136 14.95-16.828 15.010-2.278 0-4.555 0-6.769 0-3.353 0-6.706 0-10.122 0-12.716 0.311-21.825 8.713-21.762 19.957 0.126 10.997 9.236 19.152 21.699 19.461l0.316 0.062zM444.279 344.785v8.341c45.739-16.064 90.21-16.064 135.885 0v-7.044c0-14.767 0-29.158-0.064-43.554 0-0.311-0.503-1.237-1.011-1.609-19.358-14.272-38.716-28.42-58.266-42.752l-8.602-6.302-51.435 37.623c-4.745 3.46-9.549 6.921-14.17 10.569-1.263 0.986-2.15 2.283-2.15 2.718-0.188 13.837-0.128 27.678-0.128 41.95l-0.060 0.060zM299.786 503.689c7.591-0.926 15.056-1.792 22.205-2.906 0.443-0.247 1.329-1.421 1.392-2.039 5.124-31.817 18.22-60.975 38.906-86.801 14.108-17.545 31.252-32.311 51.116-43.925 2.53-1.485 3.163-2.534 3.1-5.005-0.19-6.921-0.127-13.901-0.127-21.069v-5.129c-35.996 17.485-64.211 41.643-86.1 73.89-19.485 28.668-31.125 60.113-34.732 93.538l4.175-0.495 0.064-0.060zM575.735 264.286c13.35 9.758 26.697 19.52 39.983 29.406 1.707 1.297 2.466 1.485 2.846 1.421 0.256 0 0.887-0.307 2.027-1.852 8.666-11.738 17.775-23.415 25.493-33.301 1.835-2.347 2.027-3.891 0.951-6.302-3.861-8.525-7.595-17.114-11.324-25.638l-0.636-1.485v13.099c0 9.698-4.809 18.411-12.715 23.292-4.365 2.658-9.173 4.015-14.17 4.015-4.241 0-8.606-0.986-12.843-2.965-15.057-7.044-30.43-14.579-45.803-22.426-2.658-1.361-3.921-1.485-5.060-0.124l31.249 22.921v-0.060zM512.030 128.61c-7.526-0.124-13.662-6.242-13.726-13.594 0-3.767 1.391-7.228 3.921-9.698 2.594-2.47 6.135-3.831 10.061-3.831h0.124c7.846 0.060 13.602 5.683 13.666 13.346 0 3.767-1.455 7.287-4.113 9.882-2.654 2.598-6.199 3.955-9.933 3.895zM443.836 501.15c-2.658-2.654-3.925-6.485-3.861-11.426 0.256-12.42 4.493-23.974 12.591-34.351 13.854-17.673 36.122-27.618 59.465-27.618 7.339 0 14.805 0.99 22.144 3.029 29.039 8.090 49.28 31.629 50.355 58.505 0.192 5.005-1.075 8.896-3.729 11.614-2.658 2.722-6.579 4.143-11.644 4.143-13.538 0-27.012 0-40.55 0h-32.265c-13.79 0-27.52 0-41.31 0-4.873 0-8.602-1.297-11.196-3.895zM471.479 477.611h81.485c-3.166-8.585-17.587-21.623-38.084-22.549-19.17-0.862-38.148 9.207-43.401 22.549zM415.936 594.503c1.835 0 3.669-0.062 5.567-0.062 1.392 0 2.847 0 4.239 0h8.793c3.29 0 6.579 0 9.869 0 7.403 0.186 13.222 5.684 13.602 12.851 0.188 3.521-1.203 7.105-3.733 9.823-2.466 2.595-5.628 4.078-8.981 4.14-10.692 0.309-20.561 0.309-30.051 0-3.29-0.124-6.326-1.483-8.54-3.769-2.531-2.657-3.859-6.364-3.669-10.318 0.253-7.105 5.757-12.48 13.032-12.665h-0.127zM579.913 594.503c1.835 0 3.669-0.062 5.44-0.062 1.455 0 2.91 0 4.365 0h8.414c3.226 0 6.391 0 9.617 0 7.97 0.124 13.79 5.684 13.918 13.16 0.128 7.537-5.82 13.592-13.474 13.715-9.489 0.186-19.042 0.186-28.407 0-7.398-0.185-13.282-5.993-13.41-13.221-0.128-7.476 5.82-13.468 13.538-13.654v0.062zM443.959 568.122c-0.503 7.043-6.199 12.233-13.538 12.295-7.463 0.061-13.41-5.313-13.979-12.542-0.127-1.792-0.127-3.522-0.064-5.313v-4.572c0-1.792 0-3.522 0-5.251 0.443-7.167 5.884-12.294 13.16-12.542 0.252 0 0.444 0 0.695 0 7.782 0 13.094 4.572 13.666 11.8 0.38 5.19 0.439 10.627 0 16.249l0.060-0.124zM607.748 567.505c-0.316 7.105-5.568 12.418-12.907 12.851-7.59 0.494-14.042-4.881-14.549-11.986-0.38-5.004-0.38-10.441 0-16.186 0.444-7.043 6.199-12.109 13.854-12.109 0.128 0 0.252 0 0.38 0 7.718 0.185 13.030 5.375 13.286 12.912 0 1.606 0 3.275 0 4.881v4.325c0 1.73 0 3.522 0 5.252l-0.064 0.061z" />
<glyph unicode="&#xe90e;" glyph-name="check" d="M800.375 650.919c13.722-13.885 13.722-36.398 0-50.283l-351.373-355.555c-13.722-13.884-35.969-13.884-49.691 0l-175.687 177.779c-13.722 13.884-13.722 36.395 0 50.278 13.722 13.888 35.97 13.888 49.692 0l150.84-152.636 326.529 330.416c13.722 13.885 35.968 13.885 49.69 0z" />
<glyph unicode="&#xe90f;" glyph-name="check-circle" d="M512 21.333c-235.273 0-426.667 191.394-426.667 426.667s191.393 426.667 426.667 426.667c235.273 0 426.667-191.393 426.667-426.667s-191.394-426.667-426.667-426.667zM512 821.333c-205.866 0-373.333-167.468-373.333-373.333s167.468-373.333 373.333-373.333c205.867 0 373.333 167.467 373.333 373.333s-167.467 373.333-373.333 373.333zM472 305.779c-6.831 0-13.653 2.59-18.846 7.821l-115.555 115.554c-10.417 10.423-10.417 27.311 0 37.726s27.305 10.415 37.728 0l96.707-96.713 212.271 212.266c10.415 10.417 27.302 10.417 37.722 0 10.415-10.417 10.415-27.305 0-37.722l-231.113-231.112c-5.261-5.231-12.083-7.821-18.914-7.821z" />
<glyph unicode="&#xe910;" glyph-name="check-double" d="M639.817 608.532c-13.244 13.365-34.82 13.534-48.273 0.375l-252.303-248.877-109.678 113.327c-13.082 13.606-34.738 14.050-48.37 0.994-13.634-13.056-14.082-34.667-1.001-48.273l133.906-138.5c6.4-6.519 15.147-10.206 24.29-10.244h0.376c8.969 0.030 17.57 3.571 23.947 9.869l276.794 273.152c13.376 13.236 13.513 34.771 0.311 48.177zM519.36 287.578c6.383-6.502 15.104-10.189 24.222-10.244h0.375c8.969 0.030 17.57 3.571 23.949 9.869l276.796 273.152c12.548 14.1 11.264 35.68-2.863 48.203-12.804 11.352-32.051 11.502-45.030 0.35l-252.203-248.877-8.998 9.323c-13.077 13.606-34.735 14.054-48.367 0.998-13.636-13.052-14.084-34.667-1.003-48.277l0.175-0.183 32.947-34.313z" />
<glyph unicode="&#xe911;" glyph-name="check-radio" d="M512 96c-194.404 0-352 157.598-352 352 0 194.404 157.596 352 352 352 194.402 0 352-157.596 352-352 0-194.402-157.598-352-352-352zM512 32c229.751 0 416 186.249 416 416s-186.249 416-416 416c-229.751 0-416-186.249-416-416s186.249-416 416-416zM725.333 448c0-117.82-95.514-213.333-213.333-213.333s-213.333 95.514-213.333 213.333c0 117.821 95.513 213.333 213.333 213.333s213.333-95.513 213.333-213.333z" />
<glyph unicode="&#xe912;" glyph-name="close" d="M790.613 214.613c12.501-12.501 12.501-32.768 0-45.269-6.229-6.229-14.421-9.387-22.613-9.387s-16.384 3.115-22.613 9.387l-233.387 233.387-233.387-233.387c-6.229-6.229-14.421-9.387-22.613-9.387s-16.384 3.115-22.613 9.387c-12.501 12.501-12.501 32.768 0 45.269l233.387 233.387-233.387 233.385c-12.501 12.501-12.501 32.769 0 45.271s32.768 12.501 45.27 0l233.387-233.386 233.387 233.386c12.501 12.501 32.768 12.501 45.269 0s12.501-32.769 0-45.271l-233.387-233.385 233.301-233.387z" />
<glyph unicode="&#xe913;" glyph-name="close-v2" d="M790.613 214.613c12.501-12.501 12.501-32.768 0-45.269-6.229-6.229-14.421-9.387-22.613-9.387s-16.384 3.115-22.613 9.387l-233.387 233.387-233.387-233.387c-6.229-6.229-14.421-9.387-22.613-9.387s-16.384 3.115-22.613 9.387c-12.501 12.501-12.501 32.768 0 45.269l233.387 233.387-233.387 233.385c-12.501 12.501-12.501 32.769 0 45.271s32.768 12.501 45.27 0l233.387-233.386 233.387 233.386c12.501 12.501 32.768 12.501 45.269 0s12.501-32.769 0-45.271l-233.387-233.385 233.301-233.387z" />
<glyph unicode="&#xe914;" glyph-name="copy" d="M698.667 874.667c-3.307 0-320 0-320 0-56.427 0-106.666-51.76-106.666-106.667l-30.827-0.72c-56.4 0-102.507-51.039-102.507-105.946v-533.333c0-54.908 50.24-106.667 106.667-106.667h400c56.427 0 106.667 51.759 106.667 106.667h26.667c56.427 0 106.667 51.759 106.667 106.667v426.026l-186.667 213.974zM645.333 74.667h-400c-28 0-53.333 26.159-53.333 53.333v533.333c0 27.173 22.8 52.454 50.8 52.454l29.199 0.879v-480c0-54.908 50.239-106.667 106.666-106.667h320c0-27.174-25.335-53.333-53.333-53.333zM832 234.667c0-27.174-25.331-53.333-53.333-53.333h-400c-28 0-53.333 26.159-53.333 53.333v533.333c0 27.173 25.333 53.333 53.333 53.333h266.667c-0.427-61.414 0-107.334 0-107.334 0-55.413 49.865-106 106.667-106 0 0 28.322 0 80 0v-373.332zM752 661.333c-28.399 0-53.333 51.599-53.333 79.28 0 0 0 28.054 0 79.893v0.054l133.333-159.227h-80zM698.667 500.851h-240c-14.72 0-26.667-11.917-26.667-26.637s11.947-26.641 26.667-26.641h240c14.72 0 26.667 11.921 26.667 26.641s-11.947 26.637-26.667 26.637zM698.667 367.654h-240c-14.72 0-26.667-11.921-26.667-26.641s11.947-26.641 26.667-26.641h240c14.72 0 26.667 11.921 26.667 26.641s-11.947 26.641-26.667 26.641z" />
<glyph unicode="&#xe915;" glyph-name="default" d="M512 96c-194.404 0-352 157.598-352 352 0 194.404 157.596 352 352 352 194.402 0 352-157.596 352-352 0-194.402-157.598-352-352-352zM512 32c229.751 0 416 186.249 416 416s-186.249 416-416 416c-229.751 0-416-186.249-416-416s186.249-416 416-416z" />
<glyph unicode="&#xe916;" glyph-name="default-radio" d="M512 96c-194.404 0-352 157.598-352 352 0 194.404 157.596 352 352 352 194.402 0 352-157.596 352-352 0-194.402-157.598-352-352-352zM512 32c229.751 0 416 186.249 416 416s-186.249 416-416 416c-229.751 0-416-186.249-416-416s186.249-416 416-416z" />
<glyph unicode="&#xe917;" glyph-name="deposit" d="M894.545 311.859c2.91 7.125 1.212 15.484-4.117 20.89l-158.635 160.96c-3.635 3.686-8.235 5.649-13.321 5.649s-9.69-1.963-13.321-5.649l-158.639-160.96c-5.329-5.406-7.023-13.764-4.117-20.89s9.69-11.793 17.438-11.793h76.292v-158.012c0-19.413 15.501-35.388 34.876-35.388h95.181c19.136 0 34.876 15.727 34.876 35.388v158.012h76.292c7.753 0 14.532 4.668 17.438 11.793h-0.243zM763.034 319.232v-173.986h-89.126v173.986c0 10.569-8.478 19.166-18.893 19.166h-49.647l113.105 114.765 113.105-114.765h-49.651c-10.415 0-18.893-8.597-18.893-19.166zM813.653 789.333h-603.307c-45.29 0-82.346-37.598-82.346-83.552v-418.742c0-46.199 37.056-83.55 82.346-83.55h285.79c10.415 0 18.893 8.597 18.893 19.166s-8.478 19.166-18.893 19.166h-285.79c-24.704 0-44.564 20.399-44.564 45.218v77.41h203.444c45.533 0 82.345 37.598 82.345 83.55v96.576c0 46.199-37.055 83.552-82.345 83.552h-203.444v77.654c0 25.065 20.102 45.216 44.564 45.216h603.307c24.704 0 44.565-20.396 44.565-45.216v-322.166c0-10.569 8.478-19.166 18.889-19.166 10.415 0 18.893 8.597 18.893 19.166v322.166c0 46.199-37.056 83.552-82.347 83.552zM165.782 402.782v187.256h203.444c24.704 0 44.564-20.396 44.564-45.216v-96.574c0-25.067-20.102-45.218-44.564-45.218h-203.444v-0.247zM289.786 563.744c-36.571 0-66.604-30.226-66.604-67.577 0-37.355 29.79-67.58 66.604-67.58s66.604 30.225 66.604 67.58c0 37.351-29.79 67.577-66.604 67.577zM318.607 496.166c0-15.974-12.836-29.244-28.821-29.244s-28.821 13.022-28.821 29.244c0 16.218 12.836 29.244 28.821 29.244s28.821-13.026 28.821-29.244z" />
<glyph unicode="&#xe918;" glyph-name="dice" d="M802.611 750.014l-253.44 76.484c-24.269 7.337-49.92 7.337-74.342 0l-253.44-76.484c-54.989-16.545-93.389-68.835-93.389-127.057v-277.685c0-47.292 25.037-91.311 65.28-114.88l253.44-148.753c20.122-11.861 42.701-17.638 65.28-17.638s45.158 5.931 65.28 17.638l253.44 148.753c40.243 23.569 65.28 67.588 65.28 114.88v277.685c0 58.222-38.4 110.512-93.389 127.057zM230.144 720.045l253.44 76.484c9.37 2.966 18.893 4.215 28.416 4.215s19.046-1.405 28.416-4.215l253.44-76.484c17.664-5.307 32.87-15.765 44.851-29.033l-217.19-76.484c-50.227-17.794-89.395-56.036-109.67-103.642-20.275 47.606-59.29 85.847-109.67 103.642l-217.19 76.484c12.134 13.423 27.494 23.725 45.158 29.033zM865.28 345.271c0-36.053-19.046-69.769-49.92-87.876l-253.44-148.753c-30.72-18.108-68.966-18.108-99.84 0l-253.44 148.753c-30.874 18.108-49.92 51.665-49.92 87.876v277.685c0 14.516 3.379 28.564 9.062 41.364l224.563-79.138c62.362-22.008 104.294-81.947 104.294-149.066v-232.887c0-8.585 6.912-15.607 15.36-15.607s15.36 7.023 15.36 15.607v232.734c0 67.115 41.933 127.055 104.294 149.064l224.563 79.137c5.683-12.8 9.062-26.691 9.062-41.364v-277.53zM762.675 567.701c-27.341 0-49.613-22.633-49.613-50.415 0-27.785 22.272-50.419 49.613-50.419s49.613 22.635 49.613 50.419c0 27.782-22.118 50.415-49.613 50.415zM762.675 497.929c-10.445 0-18.893 8.585-18.893 19.2s8.448 19.199 18.893 19.199c10.445 0 18.893-8.583 18.893-19.199 0.154-10.458-8.448-19.2-18.893-19.2zM700.928 448.137c-27.341 0-49.613-22.635-49.613-50.415 0-27.785 22.272-50.419 49.613-50.419s49.613 22.635 49.613 50.419c0 27.78-22.118 50.415-49.613 50.415zM700.928 378.364c-10.445 0-18.893 8.585-18.893 19.2s8.448 19.2 18.893 19.2c10.445 0 18.893-8.585 18.893-19.2 0.154-10.458-8.448-19.2-18.893-19.2zM239.667 599.856c-27.341 0-49.613-22.633-49.613-50.417s22.272-50.418 49.613-50.418c27.341 0 49.613 22.635 49.613 50.418s-22.118 50.417-49.613 50.417zM239.667 530.082c-10.445 0-18.893 8.586-18.893 19.2s8.448 19.199 18.893 19.199c10.445 0 18.893-8.585 18.893-19.199 0.154-10.458-8.448-19.2-18.893-19.2zM239.667 398.345c-27.341 0-49.613-22.635-49.613-50.419 0-27.78 22.272-50.415 49.613-50.415s49.613 22.635 49.613 50.415c0 27.785-22.118 50.419-49.613 50.419zM239.667 328.572c-10.445 0-18.893 8.585-18.893 19.2s8.448 19.2 18.893 19.2c10.445 0 18.893-8.585 18.893-19.2 0.154-10.615-8.448-19.2-18.893-19.2zM412.314 293.764c-27.341 0-49.613-22.635-49.613-50.419 0-27.78 22.272-50.415 49.613-50.415s49.613 22.635 49.613 50.415c0 27.785-22.272 50.419-49.613 50.419zM412.314 223.991c-10.445 0-18.893 8.585-18.893 19.2s8.448 19.2 18.893 19.2c10.445 0 18.893-8.585 18.893-19.2s-8.448-19.2-18.893-19.2zM412.314 493.871c-27.341 0-49.613-22.635-49.613-50.415 0-27.785 22.272-50.419 49.613-50.419s49.613 22.635 49.613 50.419c0 27.78-22.272 50.415-49.613 50.415zM412.314 424.098c-10.445 0-18.893 8.585-18.893 19.2s8.448 19.2 18.893 19.2c10.445 0 18.893-8.585 18.893-19.2s-8.448-19.2-18.893-19.2zM512 624.362c39.782 0 72.038 26.535 72.038 59.158s-32.256 59.158-72.038 59.158c-39.782 0-72.038-26.535-72.038-59.158s32.256-59.158 72.038-59.158zM512 711.46c22.426 0 41.318-12.8 41.318-27.94s-18.893-27.94-41.318-27.94c-22.426 0-41.318 12.799-41.318 27.94s18.893 27.94 41.318 27.94zM639.181 328.572c-27.341 0-49.613-22.635-49.613-50.415 0-27.785 22.272-50.419 49.613-50.419s49.613 22.635 49.613 50.419c0 27.78-22.272 50.415-49.613 50.415zM639.181 258.799c-10.445 0-18.893 8.585-18.893 19.2s8.448 19.2 18.893 19.2c10.445 0 18.893-8.585 18.893-19.2s-8.448-19.2-18.893-19.2z" />
<glyph unicode="&#xe919;" glyph-name="download" d="M853.333 252.954v-97.523c0-26.893-21.871-48.764-48.764-48.764h-585.141c-26.892 0-48.762 21.871-48.762 48.764v97.523c0 13.457 10.923 24.38 24.381 24.38s24.381-10.923 24.381-24.38v-97.523h585.141v97.523c0 13.457 10.923 24.38 24.384 24.38 13.457 0 24.38-10.923 24.38-24.38zM324.096 430.763c-9.533 9.532-9.533 24.943 0 34.475s24.942 9.532 34.475 0l129.050-129.050v428.765c0 13.458 10.923 24.381 24.38 24.381s24.38-10.923 24.38-24.381v-428.765l129.050 129.050c9.532 9.532 24.943 9.532 34.475 0s9.532-24.943 0-34.475l-170.667-170.667c-9.655-9.681-25.135-9.361-34.5 0l-170.641 170.667z" />
<glyph unicode="&#xe91a;" glyph-name="download-v2" d="M853.333 252.954v-97.523c0-26.893-21.871-48.764-48.764-48.764h-585.141c-26.892 0-48.762 21.871-48.762 48.764v97.523c0 13.457 10.923 24.38 24.381 24.38s24.381-10.923 24.381-24.38v-97.523h585.141v97.523c0 13.457 10.923 24.38 24.384 24.38 13.457 0 24.38-10.923 24.38-24.38zM324.096 430.763c-9.533 9.532-9.533 24.943 0 34.475s24.942 9.532 34.475 0l129.050-129.050v428.765c0 13.458 10.923 24.381 24.38 24.381s24.38-10.923 24.38-24.381v-428.765l129.050 129.050c9.532 9.532 24.943 9.532 34.475 0s9.532-24.943 0-34.475l-170.667-170.667c-9.655-9.681-25.135-9.361-34.5 0l-170.641 170.667z" />
<glyph unicode="&#xe91b;" glyph-name="facebook" d="M627.904 689.197h77.76c16.657 0 30.212 13.553 30.212 30.213v124.945c0 16.66-13.555 30.214-30.212 30.214h-106.778c-1.024 0.043-2.799 0.098-5.291 0.098-20.147 0-90.206-3.975-145.788-55.107-60.668-55.822-54.863-122.595-52.31-139.058v-81.4h-77.285c-16.658 0-30.213-13.553-30.213-30.214v-134.38c0-16.661 13.553-30.217 30.213-30.217h72.813v-352.747c0-16.657 13.553-30.212 30.214-30.212h152.281c16.657 0 30.212 13.555 30.212 30.212v351.002h86.246c15.356 0 28.262 11.507 30.016 26.761l15.68 136.121c0.986 8.552-1.732 17.142-7.458 23.567-5.73 6.422-13.948 10.105-22.554 10.105h-101.926v68.328c0 14.118 3.849 21.769 24.166 21.769zM586.739 565.102h114.679l-14.81-128.558h-99.874c-9.387 0-16.998-7.607-16.998-16.998v-364.215h-144.715v365.961c0 9.387-7.612 16.998-16.998 16.998h-86.028v126.816h90.502c9.386 0 16.999 7.61 16.999 16.998v99.78c0 0.975-0.085 1.95-0.252 2.912-1.792 10.292-8.196 63.942 41.583 109.745 46.528 42.802 105.732 46.129 122.769 46.129 2.389 0 3.81-0.064 4.070-0.077 0.282-0.013 0.559-0.020 0.841-0.020h103.377v-117.38h-73.975c-36.425 0-58.167-20.847-58.167-55.763v-85.327c0-9.39 7.612-17 16.998-17z" />
<glyph unicode="&#xe91c;" glyph-name="filter" d="M445.082 106.667c-7.1 0-13.909 2.82-18.931 7.842-5.021 5.018-7.841 11.827-7.841 18.927v257.408l-248.169 272.932c-9.769 10.766-16.204 24.135-18.522 38.486s-0.422 29.066 5.46 42.361c5.882 13.294 15.496 24.595 27.675 32.532s26.401 12.167 40.938 12.179h572.637c14.537-0.012 28.757-4.242 40.939-12.179 12.177-7.936 21.794-19.238 27.674-32.532 5.884-13.295 7.778-28.010 5.461-42.361-2.321-14.351-8.755-27.721-18.522-38.486l-248.171-272.932v-150.319c-0.004-4.011-0.905-7.97-2.645-11.584-1.737-3.614-4.262-6.793-7.394-9.301l-133.858-107.085c-4.745-3.806-10.645-5.884-16.73-5.888zM225.69 735.791c-4.166-0.011-8.239-1.228-11.728-3.505s-6.241-5.517-7.927-9.327c-1.686-3.81-2.231-8.026-1.569-12.139s2.5-7.946 5.295-11.036l255.13-281.1c4.369-4.804 6.844-11.038 6.959-17.532v-212.032l80.316 64.789v147.243c-0.017 6.677 2.466 13.124 6.959 18.069l255.13 281.097c2.628 3.104 4.326 6.887 4.894 10.914s-0.013 8.132-1.677 11.842c-1.668 3.71-4.348 6.872-7.735 9.123s-7.343 3.496-11.409 3.594h-572.637z" />
<glyph unicode="&#xe91d;" glyph-name="game" d="M938.21 340.715c-2.129 48.892-10.633 103.095-23.386 154.116-12.753 48.89-28.698 94.593-47.829 129.667-74.398 130.732-155.179 110.538-251.895 85.029-30.827-7.44-63.774-15.943-97.783-19.131h-10.633c-34.010 3.188-66.957 11.692-97.781 19.131-96.721 24.446-177.498 45.703-251.898-86.092-19.132-35.075-36.137-80.777-47.829-129.671-12.754-51.017-21.257-105.22-23.383-154.112-2.126-54.208 3.188-93.534 14.88-121.169 11.692-25.506 28.697-41.451 51.017-47.825 20.195-5.316 43.578-3.191 68.023 7.437 41.452 17.007 89.28 53.146 136.047 96.721 32.948 31.885 94.596 47.829 156.241 47.829s123.294-15.945 156.241-47.829c46.767-43.575 94.596-79.714 136.047-96.721 24.444-9.566 47.829-12.753 68.023-7.437 21.257 6.374 39.326 21.257 51.017 48.887 11.691 26.573 17.007 65.899 14.882 121.169zM887.189 234.428c-6.374-14.882-14.878-23.381-25.506-26.573-11.695-3.187-26.573-1.062-43.58 5.316-37.201 14.878-80.777 47.829-123.29 88.218-40.388 40.388-111.603 60.582-182.814 60.582s-142.423-20.194-183.875-58.458c-43.577-40.388-87.155-74.402-123.292-88.218-17.006-6.379-31.886-9.566-43.578-5.312-10.629 3.187-19.132 11.691-25.509 26.569-8.503 20.194-12.754 53.146-10.629 102.037 2.126 45.7 9.566 97.783 22.32 146.675 11.692 45.7 26.572 88.216 44.64 120.102 58.458 105.223 126.481 88.218 207.258 66.96 32.949-8.503 66.959-17.006 104.16-20.194 1.062 0 1.062 0 2.125 0h11.695c1.062 0 1.062 0 2.125 0 38.263 3.188 72.273 11.691 105.225 20.194 80.777 20.195 148.8 38.263 207.258-66.96 18.065-31.886 32.947-73.339 44.638-120.102 11.691-48.892 20.194-99.913 22.319-146.675 2.129-48.892-2.125-81.843-11.691-104.162zM414.217 547.972c-10.629 9.566-23.383 17.006-38.263 18.069-1.063 13.817-7.44 27.634-17.006 37.2l-1.063 1.063c-11.692 11.692-26.572 18.068-43.578 18.068s-32.948-7.44-43.577-18.068c-9.566-9.566-17.006-23.383-18.069-38.263-14.88-1.063-27.634-7.44-38.263-17.006l-1.063-1.063c-11.692-11.692-18.068-26.573-18.068-43.575 0-17.007 7.44-32.951 18.068-43.58s23.383-17.007 39.326-18.069c1.063-14.878 7.44-28.698 18.069-38.263 11.692-11.691 26.572-18.065 43.577-18.065s32.949 7.437 43.578 18.065c9.565 10.628 17.006 23.386 18.068 38.263 14.88 1.062 28.697 7.441 38.263 18.069 11.692 11.691 18.069 26.573 18.069 43.58 0 17.003-7.441 32.947-18.069 43.575zM387.645 488.452c-4.251-4.25-9.566-6.379-15.943-6.379h-14.88c-10.629 0-20.195-8.503-20.195-20.194v-13.815c0-6.379-2.126-11.691-6.377-15.945-4.251-4.25-9.565-6.374-15.943-6.374s-11.692 2.125-15.943 6.374c-4.251 4.254-6.377 9.566-6.377 15.945v14.878c0 10.628-8.503 20.194-20.194 20.194h-14.88c-6.377 0-11.692 2.129-15.943 6.379-3.188 3.187-6.377 8.503-6.377 14.882 0 6.374 2.126 11.691 6.377 15.94 0 0 0 0 1.063 1.062 4.252 3.191 9.566 5.316 14.88 5.316h14.88c10.629 0 20.194 8.502 20.194 20.194v14.88c0 6.377 2.126 11.692 6.377 15.943s9.566 6.377 15.943 6.377c6.377 0 11.692-2.126 15.943-6.377 0 0 0 0 1.063-1.063 3.188-4.252 5.314-9.566 5.314-14.88v-14.88c0-10.629 8.503-20.194 20.195-20.194h14.88c6.377 0 11.692-2.125 15.943-6.379 4.251-4.25 6.377-9.566 6.377-15.94 0-6.379-2.126-11.695-6.377-15.945zM696.939 542.658c20.544 0 37.201 16.655 37.201 37.2s-16.657 37.2-37.201 37.2c-20.544 0-37.201-16.655-37.201-37.2s16.657-37.2 37.201-37.2zM696.939 391.731c20.544 0 37.201 16.657 37.201 37.201s-16.657 37.201-37.201 37.201c-20.544 0-37.201-16.657-37.201-37.201s16.657-37.201 37.201-37.201zM621.474 467.196c20.544 0 37.201 16.653 37.201 37.201 0 20.544-16.657 37.199-37.201 37.199s-37.201-16.655-37.201-37.199c0-20.548 16.657-37.201 37.201-37.201zM772.403 467.196c20.544 0 37.197 16.653 37.197 37.201 0 20.544-16.653 37.199-37.197 37.199-20.548 0-37.201-16.655-37.201-37.199 0-20.548 16.653-37.201 37.201-37.201z" />
<glyph unicode="&#xe91e;" glyph-name="card-game" d="M540.169 571.502c0-66.713 61.982-130.964 121.975-193.074 2.458-2.5 5.692-3.887 9.143-3.887s6.729 1.387 9.143 3.934c59.955 62.11 121.933 126.315 121.933 193.072 0 41.152-32.303 74.619-71.987 74.619-25.489 0-43.951-10.143-59.089-32.663-15.138 22.52-33.6 32.663-59.089 32.663-39.723 0-71.987-33.467-71.987-74.619l-0.043-0.045zM566.050 571.502c0 26.362 20.702 47.81 46.148 47.81 21.909 0 33.425-9.339 47.488-38.472 2.155-4.513 6.686-7.417 11.558-7.417s9.361 2.815 11.558 7.417c14.063 29.133 25.621 38.472 47.531 38.472 25.446 0 46.11-21.448 46.11-47.81 0-54.335-57.54-115.148-105.199-164.654-47.659 49.463-105.195 110.276-105.195 164.654zM530.377 694.2c2.462-2.502 5.696-3.887 9.148-3.887 3.447 0 6.729 1.43 9.143 3.932 18.202 18.856 37.047 38.338 37.047 61.17 0 16.89-13.282 30.652-29.589 30.652-6.383 0-11.947-1.743-16.649-5.139-4.698 3.396-10.261 5.139-16.649 5.139-16.303 0-29.585-13.762-29.585-30.652 0-22.788 18.846-42.27 37.047-61.17l0.085-0.044zM551.083 753.672c2.671 5.496 3.277 5.496 5.043 5.496 2.031 0 3.712-1.698 3.712-3.843 0-9.071-9.404-20.867-20.314-32.618-10.914 11.751-20.318 23.547-20.318 32.618 0 2.1 1.638 3.843 3.712 3.843 1.809 0 2.415 0 5.043-5.496 2.159-4.513 6.686-7.417 11.563-7.417 4.873 0 9.357 2.815 11.558 7.417zM756.86 299.699c0-22.788 18.85-42.313 37.052-61.171 2.415-2.547 5.692-3.93 9.143-3.93s6.686 1.382 9.186 3.93c18.202 18.859 37.052 38.34 37.052 61.129 0 16.887-13.286 30.652-29.589 30.652-6.383 0-11.947-1.745-16.649-5.141-4.702 3.396-10.266 5.141-16.649 5.141-16.303 0-29.589-13.764-29.589-30.652l0.043 0.043zM814.571 298.001c2.675 5.495 3.277 5.495 5.047 5.495 2.027 0 3.708-1.698 3.708-3.84 0-9.071-9.404-20.868-20.314-32.619-10.914 11.75-20.318 23.59-20.318 32.619 0 2.099 1.643 3.84 3.712 3.84 1.766 0 2.372 0 5.047-5.495 2.155-4.514 6.682-7.415 11.558-7.415 4.873 0 9.357 2.812 11.558 7.415zM841.182 832h-339.831c-25.924 0-47.663-18.767-53.312-43.833l-146.602-56.032c-13.716-5.228-24.628-15.728-30.752-29.535-4.356-9.786-5.866-20.331-4.615-30.697l-118.869-105.137c-11.128-9.786-17.856-23.548-19.021-38.693-1.165-15.151 3.407-29.807 12.896-41.331l332.112-402.901c9.489-11.529 22.771-18.5 37.393-19.661 1.468-0.137 2.931-0.179 4.399-0.179 13.026 0 25.621 4.826 35.456 13.538l125.598 111.125h165.15c30.234 0 54.818 25.468 54.818 56.789v529.756c0 31.322-24.585 56.791-54.818 56.791zM837.385 805.19c0 0 0.346 0 0.516 0h3.324c15.957 0 28.941-13.449 28.941-29.981v-529.756c0-16.529-12.983-29.978-28.941-29.978h-339.874c-15.962 0-28.941 13.449-28.941 29.978v529.756c0 16.532 12.979 29.981 28.941 29.981h336.034zM501.35 188.663h97.434l-91.439-34.94c-7.202-2.773-15.053-2.415-22.084 0.939-7.031 3.349-12.378 9.335-15.053 16.798l-16.175 45.444c9.532-16.845 27.132-28.241 47.317-28.241zM447.437 235.447l-154.196 433.015c-5.521 15.505 2.157 32.797 17.123 38.516l136.163 52.055v-513.581c0-3.439 0.346-6.746 0.909-10.005zM445.926 162.21c1.165-3.217 2.586-6.255 4.228-9.114l-289.412 351.023c-5.004 6.033-7.419 13.807-6.815 21.807 0.604 7.998 4.183 15.281 10.006 20.464l110.373 97.631 171.62-481.811zM474.436 130.355c7.33-3.486 15.053-5.274 22.989-5.274 6.468 0 12.809 1.161 18.893 3.529l91.435 34.944-74.142-65.549c-5.82-5.184-13.325-7.689-21.047-7.061-7.765 0.623-14.75 4.335-19.755 10.364l-30.494 36.954c3.622-3.127 7.68-5.807 12.079-7.906h0.043zM206.248 487.723l22.169-2.59 20.444-9.25c1.639-0.759 3.407-1.118 5.176-1.118 2.329 0 4.572 0.627 6.47 1.83 3.537 2.146 5.909 5.901 6.383 10.099l2.502 22.967 8.885 21.18c1.639 3.887 1.423 8.445-0.647 12.108s-5.693 6.121-9.748 6.613l-22.169 2.592-20.444 9.204c-3.753 1.698-8.109 1.475-11.689-0.67-3.537-2.144-5.909-5.898-6.384-10.098l-2.502-22.966-8.885-21.18c-1.639-3.934-1.423-8.444 0.647-12.109s5.693-6.123 9.748-6.613h0.044zM226.562 512.299l2.717 6.477c0.474 1.165 0.82 2.458 0.949 3.797l0.776 6.972 6.254-2.816c1.165-0.491 2.372-0.849 3.666-0.981l6.729-0.802-2.717-6.438c-0.474-1.203-0.82-2.453-0.992-3.797l-0.776-6.967-6.254 2.812c-1.165 0.495-2.372 0.849-3.666 1.028l-6.729 0.806 0.043-0.090zM401.977 675.567l-37.826 25.781c-3.407 2.324-7.764 2.815-11.602 1.385-3.839-1.475-6.815-4.781-7.936-8.847l-12.594-45.039c-1.596-5.675 0.561-11.663 5.305-14.924l37.826-25.781c2.114-1.43 4.572-2.19 7.117-2.19 1.466 0 2.933 0.268 4.486 0.849 3.839 1.475 6.815 4.781 7.936 8.847l12.594 45.040c1.596 5.675-0.561 11.662-5.305 14.924v-0.044zM379.764 658.588l-5.047-18.096-15.182 10.366 5.047 18.096 15.182-10.366z" />
<glyph unicode="&#xe91f;" glyph-name="gift" d="M153.105 449.536h22.543v-278.195c0-59.051 46.88-107.341 104.774-107.341h462.644c57.638 0 104.772 48.030 104.772 107.341v278.195h22.545c14.089 0 25.617 11.81 25.617 26.244v118.888c0 44.354-35.093 80.309-78.387 80.309h-29.973c2.82 4.199 5.636 8.923 7.94 13.647 17.421 35.693 15.629 76.897-4.864 104.979-15.885 21.783-42.526 35.693-73.523 38.055-38.426 2.887-77.363-12.597-106.825-42.779l-98.368-102.354-98.37 102.354c-29.46 30.182-68.654 45.666-106.823 42.779-30.996-2.362-57.894-16.272-73.521-38.055-20.494-28.082-22.287-69.286-4.867-104.979 2.306-4.724 5.123-9.186 7.941-13.647h-29.972c-43.293 0-78.388-35.955-78.388-80.309v-118.888c0-14.434 11.528-26.244 25.617-26.244h-0.512zM226.882 171.341v278.195h259.245v-332.783h-205.705c-29.46 0-53.539 24.67-53.539 54.852v-0.265zM796.604 171.341c0-30.182-24.077-54.852-53.538-54.852h-205.705v332.783h259.243v-277.931zM844.766 594.668v-92.643h-307.405v120.463h280.252c14.857 0 27.153-12.335 27.153-27.82zM646.49 751.612c18.957 19.159 43.038 29.394 66.859 27.557 15.629-1.050 29.461-7.611 36.122-17.059 8.708-12.073 8.708-32.544 0-50.127-11.529-23.62-35.861-37.268-66.347-37.268h-110.413l73.779 76.634v0.263zM273.761 711.982c-8.454 17.584-8.454 38.055 0 50.127 6.66 9.186 20.494 15.747 36.12 16.797h5.38c21.775 0 44.061-9.973 61.481-27.82l73.775-76.634h-110.408c-30.484 0-54.82 13.647-66.348 37.268v0.262zM178.722 594.668c0 15.222 12.040 27.82 27.154 27.82h280.251v-120.463h-307.405v92.643z" />
<glyph unicode="&#xe920;" glyph-name="giftcode" d="M694.844 427.106c-87.070-2.082-87.211-129.707-0.171-132.023 87.066 2.112 87.181 129.681 0.171 132.023zM672.137 361.007c0.030 29.623 45.069 29.739 45.244 0.115-0.119-29.534-45.013-29.649-45.244-0.115zM521.259 468.702c87.036 2.197 87.036 129.821 0 132.020-87.070-2.228-87.014-129.763 0-132.020zM521.259 557.303c29.589-0.116 29.589-45.124 0-45.239-29.594 0.141-29.564 45.065 0 45.239zM748.907 588.544c-8.474 8.504-22.272 8.533-30.775 0.058l-251.371-250.187c-8.649-8.303-8.909-22.042-0.61-30.66 8.478-8.853 22.682-8.883 31.215-0.090l251.396 250.159c8.533 8.447 8.593 22.187 0.145 30.72zM334.16 577.002c-11.976 0-21.695-9.719-21.695-21.695v-55.625c0-11.977 9.719-21.696 21.695-21.696s21.695 9.719 21.695 21.696v55.625c0 11.976-9.719 21.695-21.695 21.695zM334.16 417.792c-11.976 0-21.695-9.719-21.695-21.696v-55.599c0-11.972 9.719-21.692 21.695-21.692s21.695 9.719 21.695 21.692v55.599c0 11.977-9.719 21.696-21.695 21.696zM899.008 519.582c24.499 13.133 39.744 38.734 39.659 66.532v74.399c-0.060 41.799-33.903 75.643-75.699 75.7h-701.933c-41.799-0.058-75.643-33.902-75.7-75.7v-74.341c-0.087-27.799 15.157-53.397 39.658-66.53 39.6-21.205 54.526-70.494 33.323-110.097-7.579-14.144-19.178-25.741-33.323-33.323-24.53-13.158-39.774-38.758-39.658-66.59v-74.338c0.058-41.801 33.902-75.644 75.7-75.703h701.933c41.796 0.060 75.639 33.903 75.699 75.703v74.338c0.085 27.802-15.159 53.402-39.659 66.534-56.811 28.433-56.38 114.982 0 143.415zM827.558 389.065c11.601-21.666 29.363-39.424 51.029-51.025 10.381-5.611 16.806-16.486 16.687-28.288v-74.342c-0.026-17.847-14.46-32.282-32.307-32.311h-507.171c-1.186 18.803 7.463 54.788-21.695 55.509-29.187-0.695-20.509-36.851-21.695-55.625h-151.372c-17.847 0.030-32.282 14.464-32.311 32.311v74.338c-0.116 11.806 6.306 22.682 16.691 28.292 60.717 32.512 83.54 108.1 51.026 168.815-11.599 21.666-29.36 39.427-51.026 51.027-10.385 5.612-16.806 16.488-16.691 28.29v74.457c0.029 17.847 14.464 32.282 32.311 32.311h151.372c1.186-18.831-7.521-54.903 21.695-55.626 29.187 0.694 20.509 36.852 21.695 55.626h507.171c17.847-0.029 32.282-14.464 32.307-32.311v-74.341c0.119-11.802-6.306-22.679-16.687-28.29-60.719-32.514-83.571-108.098-51.029-168.817z" />
<glyph unicode="&#xe921;" glyph-name="hide" d="M617.941 440.811l48.465 48.469c3.529-13.197 5.594-26.987 5.594-41.28 0-88.23-71.774-160-160-160-14.293 0-28.087 2.065-41.28 5.594l48.465 48.465c52.996 3.614 95.142 45.76 98.756 98.752zM935.305 460.954c-3.277 5.897-49.796 87.411-140.732 156.492l-38.805-38.807c66.304-48.753 108.318-105.615 124.86-130.681-31.607-48.124-155.593-213.291-368.627-213.291-31.945 0-61.653 4.083-89.607 10.607l-43.82-43.823c40.287-12.352 84.565-20.117 133.427-20.117 279.155 0 417.553 243.358 423.305 253.713 4.48 8.060 4.48 17.843 0 25.907zM824.188 722.479l-586.668-586.666c-5.207-5.205-12.033-7.812-18.853-7.812s-13.647 2.607-18.853 7.812c-10.42 10.419-10.42 27.294 0 37.705l74.64 74.641c-120.667 72.849-181.98 180.079-185.76 186.889-4.48 8.060-4.48 17.852 0 25.911 5.753 10.347 144.153 253.707 423.307 253.707 72.179 0 134.699-16.467 188.147-40.813l86.332 86.333c10.419 10.42 27.294 10.42 37.709 0 10.411-10.42 10.419-27.293 0-37.707zM314.22 287.923l67.513 67.516c-18.647 26.159-29.733 58.061-29.733 92.561 0 88.225 71.773 159.998 160 159.998 34.5 0 66.402-11.087 92.561-29.727l54.592 54.593c-43.132 17.274-92.147 28.467-147.153 28.467-213.033 0-337.020-165.165-368.62-213.293 20.067-30.413 77.747-107.401 170.84-160.115zM420.447 394.159l145.394 145.393c-15.859 9.367-34.121 15.113-53.841 15.113-58.812 0-106.667-47.853-106.667-106.665 0-19.721 5.747-37.982 15.113-53.841z" />
<glyph unicode="&#xe922;" glyph-name="history-bet" d="M896 448c0-211.738-172.262-384-384-384-211.736 0-384 172.262-384 384 0 13.257 10.736 24 24 24s24-10.743 24-24c0-185.271 150.728-336 336-336s336 150.729 336 336c0 185.272-150.729 336-336 336-89.288 0-172.208-34.712-234.576-96h90.576c13.264 0 24-10.744 24-24s-10.736-24-24-24h-144c-13.264 0-24 10.744-24 24v144c0 13.256 10.736 24 24 24s24-10.744 24-24v-81.864c70.808 67.584 163.848 105.864 264 105.864 211.738 0 384-172.264 384-384zM358.896 331.998h-62.859c-0.913 0-1.37 0.546-1.37 1.638l0.685 230.387c0 0.873 0.457 1.31 1.37 1.31h67.484c13.131 0 25.064-3.057 35.797-9.169 10.505-6.113 18.784-14.246 24.835-24.396 6.053-10.044 9.078-20.962 9.078-32.751 0-9.604-2.283-18.556-6.852-26.854-4.566-8.294-9.99-15.010-16.271-20.139 6.737-6.443 11.99-13.918 15.758-22.434 3.768-8.512 5.654-17.463 5.654-26.854 0-12.988-3.255-24.832-9.765-35.529-6.623-10.701-15.472-19.268-26.548-25.711-11.076-6.332-23.408-9.498-36.996-9.498zM364.206 525.542h-26.72v-52.723h26.72c8.107 0 14.673 2.731 19.697 8.188 5.024 5.568 7.537 11.571 7.537 18.010 0 7.095-2.684 13.265-8.050 18.505-5.367 5.35-11.761 8.021-19.183 8.021zM358.896 432.209h-21.41l-0.343-59.273h21.752c8.45 0 15.7 2.948 21.752 8.841 6.052 5.897 9.078 12.881 9.078 20.958 0 8.081-3.026 15.010-9.078 20.796s-13.303 8.678-21.752 8.678zM572.139 331.998h-113.387c-0.913 0-1.37 0.546-1.37 1.638l0.341 230.387c0 0.873 0.457 1.31 1.37 1.31h112.7c0.913 0 1.37-0.546 1.37-1.638v-37.496c0-0.875-0.457-1.31-1.37-1.31h-71.936v-52.399h71.936c0.913 0 1.37-0.435 1.37-1.31l0.346-37.986c0-0.875-0.457-1.31-1.37-1.31h-72.282v-58.62h72.282c0.913 0 1.37-0.546 1.37-1.638v-38.315c0-0.875-0.457-1.314-1.37-1.314zM679.526 331.998h-39.565c-1.028 0-1.54 0.546-1.54 1.638v191.253h-45.559c-1.143 0-1.711 0.546-1.711 1.638l0.341 37.495c0 0.873 0.457 1.31 1.37 1.31h133.252c1.259 0 1.886-0.436 1.886-1.31v-37.495c0-1.092-0.457-1.638-1.37-1.638h-46.076l0.346-191.253c0-1.092-0.457-1.638-1.374-1.638z" />
<glyph unicode="&#xe923;" glyph-name="history-nap" d="M896 448c0-211.738-172.262-384-384-384-211.736 0-384 172.262-384 384 0 13.257 10.736 24 24 24s24-10.743 24-24c0-185.271 150.728-336 336-336s336 150.729 336 336c0 185.272-150.729 336-336 336-89.288 0-172.208-34.712-234.576-96h90.576c13.264 0 24-10.744 24-24s-10.736-24-24-24h-144c-13.264 0-24 10.744-24 24v144c0 13.256 10.736 24 24 24s24-10.744 24-24v-81.864c70.808 67.584 163.848 105.864 264 105.864 211.738 0 384-172.264 384-384zM512 566.519c14.144 0 27.712-4.995 37.713-13.885s15.62-20.947 15.62-33.521c0-6.289 2.807-12.318 7.812-16.764 5.001-4.446 11.78-6.942 18.854-6.942s13.854 2.496 18.854 6.942c5.005 4.446 7.812 10.475 7.812 16.764-0.077 20.966-7.97 41.319-22.447 57.874-14.473 16.556-34.714 28.379-57.553 33.62v27.022c0 6.287-2.807 12.316-7.812 16.761-5.001 4.445-11.78 6.943-18.854 6.943s-13.854-2.497-18.854-6.943c-5.005-4.445-7.812-10.474-7.812-16.761v-27.022c-22.839-5.242-43.081-17.065-57.553-33.62-14.477-16.555-22.37-36.908-22.447-57.874 0-64.474 73.865-86.285 98.133-93.632 59.469-17.54 61.867-27.021 61.867-48.593 0-12.574-5.619-24.631-15.62-33.519-10.001-8.892-23.569-13.888-37.713-13.888s-27.712 4.996-37.713 13.888c-10.001 8.887-15.62 20.945-15.62 33.519 0 6.289-2.807 12.318-7.812 16.764-5.001 4.446-11.78 6.942-18.854 6.942-7.072 0-13.855-2.496-18.856-6.942s-7.811-10.475-7.811-16.764c0.077-20.966 7.97-41.318 22.447-57.873 14.473-16.555 34.714-28.382 57.553-33.621v-27.021c0-6.289 2.807-12.318 7.812-16.764 5.001-4.446 11.78-6.942 18.854-6.942s13.854 2.496 18.854 6.942c5.005 4.446 7.812 10.475 7.812 16.764v27.021c22.839 5.239 43.081 17.067 57.553 33.621 14.477 16.555 22.37 36.907 22.447 57.873 0 59.733-42.667 77.039-98.133 93.632s-61.867 33.66-61.867 48.593c0 12.574 5.619 24.63 15.62 33.521s23.569 13.885 37.713 13.885z" />
<glyph unicode="&#xe924;" glyph-name="hot1" d="M368.96 603.21c-3.953 0-7.973 0.938-11.725 2.913-12.262 6.496-16.951 21.681-10.469 33.936 55.93 105.69 147.89 188.378 258.926 232.794 12.881 5.173 27.507-1.105 32.666-13.979 5.158-12.891-1.105-27.507-13.986-32.646-100.002-40.013-182.814-114.464-233.167-209.641-4.506-8.505-13.216-13.377-22.244-13.377zM437.905 21.333c-4.454 0-8.96 1.173-13.049 3.665-59.849 36.463-83.333 112.137-54.656 176.060 5.679 12.672 20.519 18.347 33.199 12.621 12.663-5.675 18.325-20.54 12.646-33.182-18.342-40.866-3.316-89.284 34.958-112.589 11.844-7.232 15.595-22.669 8.375-34.522-4.723-7.765-13.001-12.053-21.474-12.053zM393.114 165.649c-3.484 0-7.052 0.717-10.435 2.274-12.613 5.777-18.158 20.659-12.396 33.284 15.879 34.671 38.576 64.273 60.535 92.881 22.899 29.82 44.523 58.014 57.873 90.492 5.278 12.826 19.951 18.918 32.798 13.679 12.847-5.274 18.961-19.942 13.7-32.781-15.893-38.673-40.585-70.835-64.486-101.973-21.188-27.61-41.19-53.692-54.708-83.209-4.238-9.207-13.35-14.647-22.881-14.647zM585.929 21.333c-8.478 0-16.751 4.288-21.474 12.053-7.219 11.836-3.469 27.29 8.375 34.522 38.272 23.305 53.299 71.706 34.957 112.589-5.679 12.659-0.017 27.524 12.646 33.182 12.629 5.726 27.52 0.051 33.199-12.621 28.676-63.906 5.193-139.597-54.656-176.060-4.087-2.492-8.593-3.665-13.047-3.665zM630.72 165.649c-9.532 0-18.645 5.44-22.865 14.665-13.5 29.517-33.519 55.582-54.707 83.204-23.885 31.125-48.576 63.305-64.491 101.978-5.257 12.838 0.858 27.507 13.705 32.781 12.847 5.239 27.52-0.87 32.798-13.679 13.346-32.478 34.974-60.672 57.869-90.492 21.961-28.612 44.659-58.21 60.54-92.881 5.76-12.625 0.218-27.524-12.399-33.284-3.401-1.574-6.95-2.291-10.449-2.291zM585.877 21.333c-13.167 0-24.222 10.244-25.058 23.556-0.853 13.845 9.681 25.766 23.518 26.62 67.422 4.186 129.83 37.201 171.221 90.573 8.512 10.948 24.29 12.958 35.243 4.471 10.974-8.491 12.966-24.26 4.471-35.226-50.231-64.794-125.978-104.87-207.821-109.926-0.521-0.051-1.054-0.068-1.574-0.068zM437.837 21.436c-0.567 0-1.139 0.013-1.724 0.047-81.223 5.491-156.399 45.521-206.265 109.845-8.492 10.965-6.499 26.735 4.472 35.226 10.972 8.503 26.767 6.511 35.243-4.471 41.088-52.988 103.015-85.969 169.933-90.475 13.854-0.951 24.303-12.907 23.381-26.752-0.905-13.278-11.942-23.42-25.041-23.42zM775.407 121.583c-5.325 0-10.701 1.69-15.258 5.175-11.021 8.435-13.116 24.188-4.672 35.221 20.233 26.419 34.722 57.562 41.873 90.022 2.982 13.542 16.465 22.165 29.935 19.136 13.551-2.982 22.127-16.393 19.145-29.918-8.725-39.595-26.364-77.547-51.038-109.777-4.958-6.477-12.429-9.86-19.985-9.86zM249.731 121.583c-7.554 0-15.008 3.383-19.966 9.843-24.707 32.265-41.775 68.693-50.703 108.271-24.137 105.856 3.651 218.010 84.992 342.821 7.571 11.619 23.132 14.934 34.774 7.333 11.625-7.567 14.908-23.137 7.337-34.739-73.517-112.807-99.062-212.353-78.090-304.317 7.337-32.495 21.323-62.379 41.591-88.832 8.442-11.017 6.348-26.786-4.673-35.221-4.573-3.469-9.933-5.158-15.26-5.158zM310.401 442.355c-9.783 0-19.095 5.76-23.149 15.334-14.673 34.705-23.819 71.339-27.169 108.873-1.239 13.812 8.978 26.017 22.797 27.256 13.719 1.189 26.030-8.957 27.253-22.769 2.881-32.345 10.771-63.905 23.401-93.806 5.393-12.77-0.586-27.52-13.367-32.913-3.183-1.34-6.499-1.975-9.765-1.975zM821.909 221.483c-1.809 0-3.652 0.201-5.513 0.602-13.551 3.029-22.059 16.439-19.046 29.986 28.16 125.914-55.241 242.334-143.083 350.755l-12.177 15.017c-8.725 10.782-7.066 26.586 3.703 35.308 10.769 8.756 26.581 7.098 35.345-3.7l12.177-15.018c95.578-117.996 186.112-245.553 153.079-393.333-2.611-11.682-12.979-19.618-24.486-19.618zM661.641 608.551c-7.403 0-14.741 3.248-19.699 9.492-52.779 66.481-71.945 155.296-51.273 237.616 3.383 13.444 17.020 21.564 30.485 18.249 13.466-3.382 21.641-17.026 18.257-30.47-16.9-67.268-1.237-139.86 41.877-194.171 8.627-10.865 6.818-26.67-4.070-35.275-4.591-3.666-10.099-5.441-15.578-5.441z" />
<glyph unicode="&#xe925;" glyph-name="hot-line" d="M284.492 321.485c75.75-90.547 166.934-161.843 271.011-212.288 39.625-18.782 92.621-41.058 151.659-44.877 3.661-0.162 7.164-0.32 10.82-0.32 39.629 0 71.454 13.687 97.395 41.852 0.158 0.162 0.478 0.478 0.636 0.798 9.229 11.14 19.733 21.163 30.716 31.825 7.479 7.164 15.117 14.643 22.438 22.281 33.894 35.328 33.894 80.205-0.32 114.419l-95.642 95.642c-16.235 16.87-35.648 25.783-56.017 25.783s-39.945-8.913-56.653-25.621l-56.973-56.973c-5.252 3.025-10.662 5.73-15.753 8.277-6.366 3.183-12.254 6.204-17.506 9.545-51.878 32.943-98.982 75.913-144.020 131.132-22.757 28.804-38.034 52.992-48.696 77.659 14.959 13.527 28.963 27.69 42.49 41.535 4.774 4.933 9.708 9.867 14.64 14.8 17.186 17.187 26.419 37.079 26.419 57.29s-9.071 40.103-26.419 57.289l-47.423 47.423c-5.57 5.57-10.822 10.981-16.232 16.55-10.503 10.822-21.484 21.961-32.305 31.987-16.391 16.073-35.647 24.507-56.017 24.507-20.21 0-39.625-8.434-56.653-24.666l-59.517-59.517c-21.643-21.643-33.897-47.901-36.442-78.296-3.024-38.034 3.978-78.455 22.12-127.311 27.849-75.59 69.862-145.772 132.244-220.725zM168.958 666.178c1.909 21.165 10.025 38.83 25.303 54.107l59.2 59.2c9.23 8.912 19.415 13.527 29.281 13.527 9.708 0 19.574-4.615 28.645-13.845 10.662-9.867 20.688-20.211 31.509-31.191 5.411-5.57 10.981-11.14 16.55-16.869l47.423-47.423c9.867-9.867 14.959-19.892 14.959-29.759s-5.092-19.892-14.959-29.759c-4.933-4.934-9.866-10.026-14.8-14.959-14.8-14.959-28.645-29.122-43.922-42.649-0.318-0.318-0.477-0.477-0.796-0.796-13.208-13.208-11.14-25.78-7.957-35.33 0.159-0.478 0.318-0.794 0.477-1.271 12.253-29.44 29.281-57.451 55.857-90.867 47.739-58.88 98.031-104.555 153.408-139.725 6.844-4.454 14.165-7.957 21.009-11.456 6.366-3.183 12.254-6.208 17.502-9.549 0.64-0.32 1.118-0.636 1.754-0.956 5.252-2.705 10.342-3.977 15.437-3.977 12.727 0 21.005 8.115 23.71 10.82l59.516 59.516c9.233 9.233 19.255 14.165 29.124 14.165 12.096 0 21.961-7.479 28.169-14.165l95.957-95.799c19.098-19.098 18.94-39.787-0.478-59.994-6.682-7.164-13.683-14.007-21.163-21.167-11.14-10.82-22.758-21.961-33.259-34.534-18.304-19.733-40.107-28.962-68.271-28.962-2.705 0-5.572 0.158-8.277 0.32-52.194 3.341-100.732 23.71-137.178 41.058-98.982 47.898-185.871 115.853-257.961 202.103-59.358 71.454-99.302 137.971-125.719 209.266-16.391 43.763-22.598 78.932-20.051 110.919z" />
<glyph unicode="&#xe926;" glyph-name="info" d="M512 874.667c-235.433 0-426.667-191.234-426.667-426.667 0-235.43 191.234-426.667 426.667-426.667 235.43 0 426.667 191.236 426.667 426.667 0 235.433-191.236 426.667-426.667 426.667zM512 86.976c-199.111 0-361.026 161.911-361.026 361.024 0 199.111 161.914 361.026 361.026 361.026s361.024-161.914 361.024-361.026c0-199.113-161.911-361.024-361.024-361.024zM555.759 305.779h-10.94v185.98c0 17.946-14.878 32.823-32.819 32.823h-43.759c-17.946 0-32.823-14.878-32.823-32.823 0-17.941 14.878-32.819 32.823-32.819h10.94v-153.161h-10.94c-17.946 0-32.823-14.882-32.823-32.823s14.878-32.819 32.823-32.819h87.518c17.946 0 32.823 14.878 32.823 32.819s-14.878 32.823-32.823 32.823zM512 588.034c19.337 0 35.008 15.674 35.008 35.008s-15.671 35.009-35.008 35.009c-19.337 0-35.008-15.674-35.008-35.009s15.671-35.008 35.008-35.008z" />
<glyph unicode="&#xe927;" glyph-name="match-schedule" d="M289.772 643.552c-34.31 0-62.22 27.91-62.22 62.22v8.888h-44.443c-24.497 0-44.443-19.946-44.443-44.443v-444.431c0-24.499 19.946-44.442 44.443-44.442h276.612c14.72 0 26.667-11.947 26.667-26.667s-11.947-26.667-26.667-26.667h-276.612c-53.901 0-97.775 43.84-97.775 97.775v444.431c0 53.936 43.874 97.775 97.775 97.775h44.443v8.889c0 14.72 11.946 26.666 26.666 26.666h39.252c11.626 40.994 49.421 71.109 94.077 71.109 44.658 0 82.452-30.115 94.079-71.109h39.249c14.72 0 26.667-11.946 26.667-26.666v-8.889h44.442c53.901 0 97.775-43.838 97.775-97.775v-143.639c0-14.72-11.947-26.667-26.667-26.667s-26.662 11.947-26.662 26.667v143.639c0 24.497-19.947 44.443-44.446 44.443h-44.442v-8.888c0-34.31-27.908-62.22-62.221-62.22h-195.549zM280.883 750.216v-44.443c0-4.907 3.982-8.889 8.888-8.889h195.549c4.907 0 8.887 3.982 8.887 8.889v44.443h-35.554c-14.72 0-26.662 11.946-26.662 26.666 0 24.497-19.948 44.443-44.445 44.443s-44.443-19.946-44.443-44.443c0-14.72-11.947-26.666-26.666-26.666h-35.554zM511.987 270.229c0 98.027 79.748 177.775 177.771 177.775 98.027 0 177.775-79.748 177.775-177.775 0-39.398-12.885-75.849-34.662-105.353l97.984-97.984c10.415-10.415 10.415-27.302 0-37.722-5.227-5.227-12.053-7.821-18.88-7.821s-13.653 2.594-18.846 7.821l-97.975 97.98c-29.513-21.794-65.975-34.692-105.395-34.692-98.022 0-177.771 79.748-177.771 177.771zM779.878 184.499c21.257 22.332 34.321 52.535 34.321 85.73 0 68.621-55.821 124.442-124.442 124.442s-124.437-55.821-124.437-124.442c0-68.621 55.817-124.437 124.437-124.437 33.212 0 63.424 13.073 85.764 34.347 0.631 0.798 1.318 1.57 2.057 2.308 0.734 0.734 1.502 1.421 2.3 2.052zM218.662 536.889h337.766c14.72 0 26.667 11.946 26.667 26.666s-11.947 26.666-26.667 26.666h-337.766c-14.72 0-26.666-11.946-26.666-26.666s11.946-26.666 26.666-26.666zM512.7 430.225h-294.037c-14.72 0-26.666 11.947-26.666 26.667s11.946 26.667 26.666 26.667h294.037c14.716 0 26.662-11.947 26.662-26.667s-11.947-26.667-26.662-26.667zM218.662 323.563h226.483c14.72 0 26.667 11.947 26.667 26.667s-11.947 26.667-26.667 26.667h-226.483c-14.72 0-26.666-11.947-26.666-26.667s11.946-26.667 26.666-26.667z" />
<glyph unicode="&#xe928;" glyph-name="livechat" d="M886.268 503.706c-3.332 94.987-41.801 183.812-109.346 251.356-70.793 70.81-164.885 109.793-264.922 109.793-202.047 0-367.137-160.818-374.254-361.149-30.833-13.705-52.413-44.565-52.413-80.431v-98.812c0-48.521 39.473-88.009 88.009-88.009 31.404 0 56.944 25.54 56.944 56.943v160.956c0 29.487-22.615 53.53-51.366 56.384 10.613 174.535 155.906 313.297 333.079 313.297 89.152 0 172.983-34.752 236.079-97.846 57.937-57.937 91.844-133.455 96.947-215.464-28.723-2.884-51.298-26.914-51.298-56.371v-160.943c0-29.73 22.967-53.922 52.058-56.439v-40.67c0-45.803-37.269-83.055-83.068-83.055h-61.517c-3.021 8.627-7.757 16.597-14.396 23.211-11.635 11.691-27.145 18.125-43.665 18.125h-63.407c-9.101 0-17.839-1.933-25.839-5.658-21.824-10.031-35.921-32.047-35.921-56.090 0-16.516 6.434-32.030 18.095-43.635 11.665-11.691 27.174-18.125 43.665-18.125h63.407c26.291 0 49.463 16.994 58.103 41.353h61.474c68.318 0 123.891 55.569 123.891 123.874v47.936c30.639 13.786 52.058 44.535 52.058 80.252v98.812c0 35.84-21.581 66.701-52.399 80.405zM189.452 454.353v-160.943c0-8.883-7.225-16.124-16.124-16.124-26.016 0-47.188 21.175-47.188 47.189v98.812c0 26.031 21.172 47.189 47.188 47.189 8.899 0 16.124-7.241 16.124-16.124zM663.62 88.452c-2.027-9.604-10.654-16.585-20.493-16.585h-63.407c-5.577 0-10.816 2.176-14.818 6.178-3.947 3.93-6.123 9.182-6.123 14.763 0 8.149 4.774 15.59 12.258 19.034 2.667 1.254 5.594 1.894 8.683 1.894h63.407c5.581 0 10.816-2.163 14.805-6.165 3.947-3.934 6.123-9.186 6.123-14.763 0.013-1.498-0.149-2.995-0.435-4.356zM897.847 324.476c0-26.014-21.171-47.189-47.189-47.189-8.883 0-16.124 7.228-16.124 16.124v160.943c0 8.883 7.223 16.124 16.124 16.124 26.018 0 47.189-21.171 47.189-47.189v-98.812zM644.164 317.44c47.689 0 86.481 38.81 86.481 86.485v176.221c0 23.050-9.007 44.766-25.361 61.121s-38.059 25.363-61.12 25.363h-264.326c-47.692 0-86.484-38.793-86.484-86.484v-176.221c0-47.693 38.793-86.485 86.484-86.485h1.619v-45.662c0-17.417 10.382-32.875 26.438-39.394 5.184-2.082 10.572-3.115 15.906-3.115 11.117 0 21.946 4.407 29.882 12.612l75.964 75.558h114.517zM506.859 352.329l-82.214-81.762c-0.367-0.38-0.64-0.666-1.415-0.329-0.939 0.384-0.939 0.994-0.939 1.54v66.074c0 11.264-9.13 20.412-20.41 20.412h-22.029c-25.186 0-45.664 20.489-45.664 45.662v176.221c0 25.186 20.478 45.664 45.664 45.664h264.326c12.164 0 23.607-4.762 32.26-13.402 8.653-8.654 13.402-20.111 13.402-32.262v-176.221c0-25.186-20.489-45.662-45.662-45.662h-122.923c-5.402 0-10.573-2.138-14.396-5.935zM412.848 518.891c-16.6 0-30.112-13.525-30.112-30.114 0-16.585 13.525-30.11 30.112-30.11 16.614 0 30.139 13.525 30.139 30.11 0 16.589-13.513 30.114-30.139 30.114zM511.987 518.891c-16.602 0-30.114-13.525-30.114-30.114 0-16.585 13.525-30.11 30.114-30.11 16.627 0 30.14 13.525 30.14 30.11 0 16.589-13.513 30.114-30.14 30.114zM611.123 518.891c-16.597 0-30.11-13.525-30.11-30.114 0-16.585 13.525-30.11 30.11-30.11 16.614 0 30.14 13.525 30.14 30.11 0 16.589-13.525 30.114-30.14 30.114z" />
<glyph unicode="&#xe929;" d="M511.995 959.994c-25.506 0-46.257-20.752-46.257-46.262v-188.238c0-25.51 20.751-46.262 46.257-46.262 25.508 0 46.264 20.752 46.264 46.262v188.238c0 25.51-20.756 46.262-46.264 46.262z" />
<glyph unicode="&#xe92a;" d="M511.995 216.771c-25.506 0-46.257-20.751-46.257-46.264v-188.237c0-25.513 20.751-46.264 46.257-46.264 25.508 0 46.264 20.751 46.264 46.264v188.237c0 25.513-20.756 46.264-46.264 46.264z" />
<glyph unicode="&#xe92b;" d="M315.775 298.045c-12.358 0-23.976-4.823-32.708-13.558l-133.111-133.1c-18.028-18.033-18.028-47.386 0.014-65.439 8.74-8.724 20.354-13.532 32.698-13.532 12.348 0 23.958 4.803 32.712 13.548l133.111 133.11c8.732 8.74 13.546 20.352 13.546 32.712 0 12.355-4.814 23.972-13.546 32.701-8.74 8.735-20.358 13.558-32.715 13.558z" />
<glyph unicode="&#xe92c;" d="M708.219 587.142c12.36 0 23.977 4.814 32.712 13.556l133.11 133.099c18.033 18.036 18.033 47.388-0.015 65.437-18.022 18-47.365 18.014-65.408-0.014l-133.11-133.107c-8.735-8.744-13.542-20.354-13.542-32.712s4.813-23.975 13.542-32.703c8.74-8.744 20.357-13.556 32.712-13.556z" />
<glyph unicode="&#xe92d;" d="M740.936 284.488c-8.74 8.735-20.357 13.558-32.717 13.558s-23.977-4.823-32.701-13.553c-8.74-8.735-13.553-20.352-13.553-32.712 0-12.355 4.808-23.967 13.548-32.712l133.115-133.12c8.74-8.73 20.357-13.537 32.701-13.537s23.956 4.808 32.712 13.553c18.033 18.033 18.033 47.386 0 65.423l-133.105 133.1z" />
<glyph unicode="&#xe92e;" d="M280.762 448.001c0 25.51-20.752 46.261-46.262 46.261h-188.242c-25.506 0-46.258-20.751-46.258-46.261 0-25.509 20.752-46.26 46.258-46.26h188.242c25.51 0 46.262 20.751 46.262 46.26z" />
<glyph unicode="&#xe92f;" d="M977.736 494.262h-188.242c-25.503 0-46.254-20.751-46.254-46.261 0-25.509 20.751-46.26 46.254-46.26h188.242c25.513 0 46.264 20.751 46.264 46.26s-20.751 46.261-46.264 46.261z" />
<glyph unicode="&#xe930;" glyph-name="logout" d="M347.383 91.43c0-7.275-2.889-14.255-8.032-19.396-5.143-5.146-12.118-8.034-19.391-8.034h-109.692c-21.819 0-42.744 8.67-58.173 24.102-15.428 15.428-24.096 36.361-24.096 58.185v603.427c0 21.824 8.668 42.753 24.096 58.185s36.354 24.101 58.173 24.101h109.692c7.273 0 14.248-2.89 19.391-8.034s8.032-12.12 8.032-19.395c0-7.274-2.889-14.251-8.032-19.395s-12.118-8.034-19.391-8.034h-109.692c-7.273 0-14.248-2.889-19.391-8.033s-8.032-12.121-8.032-19.395v-603.427c0-7.275 2.889-14.251 8.032-19.396s12.118-8.034 19.391-8.034h109.692c7.273 0 14.248-2.889 19.391-8.034 5.143-5.141 8.032-12.117 8.032-19.392zM887.889 467.473l-191.962 192.001c-5.163 5.165-12.169 8.067-19.469 8.067-7.305 0-14.306-2.902-19.473-8.067-5.163-5.165-8.064-12.17-8.064-19.474s2.901-14.31 8.064-19.474l145.344-145.095h-454.947c-7.273 0-14.248-2.893-19.391-8.034-5.143-5.146-8.032-12.122-8.032-19.396s2.889-14.251 8.032-19.396c5.143-5.141 12.118-8.034 19.391-8.034h454.947l-145.344-145.097c-2.569-2.547-4.608-5.581-5.999-8.926-1.395-3.341-2.112-6.925-2.112-10.547s0.717-7.206 2.112-10.547c1.391-3.345 3.43-6.379 5.999-8.926 2.551-2.573 5.585-4.612 8.926-6.003 3.341-1.395 6.925-2.112 10.547-2.112 3.618 0 7.202 0.717 10.547 2.112 3.341 1.391 6.374 3.43 8.922 6.003l191.962 192c2.569 2.547 4.608 5.581 6.003 8.926 1.391 3.341 2.108 6.925 2.108 10.547s-0.717 7.206-2.108 10.547c-1.395 3.345-3.435 6.379-6.003 8.926z" />
<glyph unicode="&#xe931;" glyph-name="maintance" d="M820.527 293.252l-175.373 175.373 33.698 33.698c33.225-6.69 67.81-1.446 97.762 14.848 34.001 18.516 58.761 49.16 69.696 86.327 7.996 27.147 7.915 55.793-0.277 82.884-2.163 7.106-7.966 12.657-15.181 14.462-7.219 1.804-14.963-0.361-20.207-5.58l-47.189-47.188-39.305 13.102-13.103 39.305 47.189 47.188c5.244 5.246 7.411 12.991 5.581 20.208-1.805 7.217-7.356 13.018-14.464 15.183-76.497 23.15-157.581-20.291-180.727-96.791-6.997-23.15-8.107-47.687-3.221-71.281l-74.586-74.585-139.591 139.593c-4.025 4.025-9.355 6.218-15.045 6.218-3.359 0-6.607-0.777-9.549-2.276l-14.212 14.212-19.069 38.139c-1.665 3.303-4.163 6.135-7.217 8.189l-61.816 41.303c-8.411 5.607-19.68 4.469-26.814-2.665l-20.624-20.596c-7.134-7.134-8.272-18.431-2.665-26.814l41.22-61.844c2.054-3.081 4.885-5.58 8.189-7.217l38.139-19.069 14.212-14.212c-1.471-2.915-2.249-6.19-2.249-9.548 0-5.69 2.221-11.020 6.218-15.045l139.593-139.593-134.374-134.374c-0.361 0-0.694 0-1.055-0.055-30.256-0.137-58.707-11.989-80.081-33.391-21.512-21.568-33.364-50.214-33.364-80.666 0-30.447 11.852-59.093 33.392-80.636 21.54-21.538 50.186-33.391 80.636-33.391 30.478 0 59.095 11.878 80.635 33.421 21.54 21.538 33.393 50.185 33.393 80.661v0.529c0 0.333 0 0.666 0.028 0.998l92.599 92.599 175.373-175.373c20.51-20.484 47.799-31.782 76.804-31.782h0.081c59.93 0 108.672 48.742 108.672 108.672 0 29.035-11.268 56.346-31.782 76.915l0.030-0.055zM449.63 499.213l-125.325 125.298c1.388 2.748 2.165 5.774 2.248 8.91 3.137 0.083 6.162 0.861 8.91 2.249l125.324-125.325-11.157-11.132zM268.096 691.934l-20.374 10.187-20.374 30.561 30.561-20.374 10.187-20.374zM599.548 484.169l-123.716-123.716c-1.331-1.331-2.441-2.803-3.358-4.386l-110.058-110.059c-4.247-4.245-6.495-10.129-6.19-16.124 0.111-2.359 0.111-4.749 0-7.108 0-0.414-0.028-0.832 0-1.22v-0.887c0-19.098-7.439-37.056-20.929-50.577-13.518-13.517-31.477-20.954-50.574-20.954s-37.056 7.437-50.574 20.954c-13.518 13.521-20.957 31.479-20.957 50.577s7.439 37.056 20.957 50.573c13.518 13.517 31.477 20.958 50.574 20.958 0.361 0 0.721 0 1.082 0.026 1.166 0.055 2.359 0.085 3.553 0.085s2.359-0.030 3.609-0.085c5.996-0.247 11.852 2.001 16.044 6.221l295.005 295.005c5.555 5.551 7.607 13.684 5.333 21.179-5.858 19.403-5.858 39.915 0 59.318 12.13 40.137 46.771 68.089 87.322 72.253l-24.981-24.982c-5.717-5.718-7.689-14.073-5.133-21.762l20.621-61.844c2.112-6.301 7.134-11.325 13.436-13.435l61.871-20.624c7.689-2.554 16.017-0.583 21.734 5.135l24.926 24.926c-0.666-6.107-1.86-12.158-3.605-18.126-15.962-54.183-73.058-85.271-127.215-69.311-7.467 2.221-15.543 0.166-21.039-5.357l-53.35-53.351c-1.583-0.913-3.055-2.027-4.386-3.358v0.055zM615.091 438.562l175.373-175.373c12.493-12.518 19.375-29.146 19.345-46.827 0-36.471-29.67-66.146-66.227-66.146-17.655 0-34.253 6.857-46.746 19.349l-175.369 175.373 93.623 93.623z" />
<glyph unicode="&#xe932;" glyph-name="menu" d="M298.667 768c0-58.91-47.756-106.667-106.667-106.667s-106.667 47.756-106.667 106.667c0 58.91 47.756 106.667 106.667 106.667s106.667-47.756 106.667-106.667zM618.667 768c0-58.91-47.757-106.667-106.667-106.667s-106.667 47.756-106.667 106.667c0 58.91 47.757 106.667 106.667 106.667s106.667-47.756 106.667-106.667zM938.667 768c0-58.91-47.757-106.667-106.667-106.667s-106.667 47.756-106.667 106.667c0 58.91 47.757 106.667 106.667 106.667s106.667-47.756 106.667-106.667zM298.667 448c0-58.91-47.756-106.667-106.667-106.667s-106.667 47.757-106.667 106.667c0 58.91 47.756 106.667 106.667 106.667s106.667-47.757 106.667-106.667zM298.667 128c0-58.91-47.756-106.667-106.667-106.667s-106.667 47.757-106.667 106.667c0 58.91 47.756 106.667 106.667 106.667s106.667-47.757 106.667-106.667zM618.667 448c0-58.91-47.757-106.667-106.667-106.667s-106.667 47.757-106.667 106.667c0 58.91 47.757 106.667 106.667 106.667s106.667-47.757 106.667-106.667zM618.667 128c0-58.91-47.757-106.667-106.667-106.667s-106.667 47.757-106.667 106.667c0 58.91 47.757 106.667 106.667 106.667s106.667-47.757 106.667-106.667zM938.667 448c0-58.91-47.757-106.667-106.667-106.667s-106.667 47.757-106.667 106.667c0 58.91 47.757 106.667 106.667 106.667s106.667-47.757 106.667-106.667zM938.667 128c0-58.91-47.757-106.667-106.667-106.667s-106.667 47.757-106.667 106.667c0 58.91 47.757 106.667 106.667 106.667s106.667-47.757 106.667-106.667z" />
<glyph unicode="&#xe933;" glyph-name="menu-dot" d="M156.445 376.887c39.274 0 71.112 31.838 71.112 71.108 0 39.275-31.838 71.113-71.112 71.113s-71.112-31.838-71.112-71.113c0-39.27 31.838-71.108 71.112-71.108zM512 376.887c39.275 0 71.113 31.838 71.113 71.108 0 39.275-31.838 71.113-71.113 71.113s-71.113-31.838-71.113-71.113c0-39.27 31.838-71.108 71.113-71.108zM867.554 376.887c39.275 0 71.113 31.838 71.113 71.108 0 39.275-31.838 71.113-71.113 71.113s-71.113-31.838-71.113-71.113c0-39.27 31.838-71.108 71.113-71.108z" />
<glyph unicode="&#xe934;" glyph-name="menu-dot-bold" d="M938.667 448c0-58.914-47.753-106.667-106.667-106.667s-106.667 47.753-106.667 106.667c0 58.914 47.753 106.667 106.667 106.667s106.667-47.753 106.667-106.667zM618.667 448c0-58.914-47.753-106.667-106.667-106.667s-106.667 47.753-106.667 106.667c0 58.914 47.753 106.667 106.667 106.667s106.667-47.753 106.667-106.667zM298.667 448c0-58.914-47.754-106.667-106.667-106.667s-106.667 47.753-106.667 106.667c0 58.914 47.754 106.667 106.667 106.667s106.667-47.753 106.667-106.667z" />
<glyph unicode="&#xe935;" glyph-name="menu-mb" d="M887.266 400.196h-756.251c-22.844 0-39.977 23.484-39.977 46.967 0 23.479 17.133 46.963 45.688 46.963h756.253c22.844 0 45.687-17.613 45.687-46.963 0-29.355-28.557-46.967-51.401-46.967zM517.41 106.667h-392.635c-19.721 0-39.442 17.613-39.442 46.963 0 29.355 14.791 46.967 39.442 46.967h392.635c19.721 0 39.441-17.613 39.441-46.967 0-29.35-19.721-46.963-39.441-46.963zM517.41 695.404h-392.635c-19.721 0-39.442 17.612-39.442 46.965s14.791 46.964 39.442 46.964h392.635c19.721 0 39.441-17.612 39.441-46.964s-19.721-46.965-39.441-46.965z" />
<glyph unicode="&#xe936;" glyph-name="message" d="M702.933 829.359c-30.878 2.642-69.295 2.641-118.293 2.641h-145.28c-49 0-87.415 0-118.291-2.641-31.44-2.69-57.412-8.259-80.922-20.803-38.647-20.622-70.069-53.527-89.761-94.001-11.978-24.62-17.296-51.82-19.864-84.744-2.523-32.334-2.522-72.563-2.522-123.878v-159.428c0-93.419 72.314-169.148 161.518-169.148h21.495c8.877 0 14.947-9.387 11.65-18.018-24.528-64.218 46.093-122.274 99.835-82.074l95.015 71.070c25.323 18.684 55.497 28.813 86.473 29.018l2.155 0.004h24.849c55.317-0.004 89.062-0.013 117.41 8.691 67.123 20.612 119.62 75.588 139.302 145.886 8.311 29.683 8.307 65.015 8.299 122.948v51.055c0 51.311 0 91.541-2.522 123.874-2.569 32.925-7.889 60.124-19.866 84.744-19.691 40.473-51.11 73.379-89.762 94.001-23.509 12.544-49.481 18.112-80.917 20.803zM264.473 758.56c14.697 7.842 32.833 12.467 60.959 14.873 28.439 2.433 64.669 2.455 115.127 2.455h142.882c50.458 0 86.69-0.022 115.127-2.455 28.126-2.406 46.259-7.031 60.958-14.873 28.565-15.242 51.789-39.564 66.347-69.479 7.488-15.391 11.9-34.384 14.204-63.838 2.321-29.782 2.342-67.724 2.342-120.564v-44.297c0-65.165-0.273-91.729-6.135-112.661-14.549-51.959-53.346-92.591-102.963-107.827-19.985-6.14-45.355-6.421-107.58-6.421l-22.097-0.004c-41.911-0.282-82.739-13.986-117.001-39.266l-95.289-71.275c-10.197-7.629-23.596 3.388-18.942 15.573 17.375 45.487-14.615 94.972-61.399 94.972h-21.495c-59.612 0-107.936 50.603-107.936 113.033v158.174c0 52.84 0.021 90.782 2.345 120.564 2.298 29.455 6.714 48.448 14.202 63.838 14.554 29.915 37.779 54.237 66.345 69.479zM404.837 504.678c0-20.659-15.993-37.406-35.721-37.406s-35.721 16.747-35.721 37.406c0 20.659 15.993 37.409 35.721 37.409s35.721-16.75 35.721-37.409zM547.721 504.678c0-20.659-15.991-37.406-35.721-37.406s-35.721 16.747-35.721 37.406c0 20.659 15.991 37.409 35.721 37.409s35.721-16.75 35.721-37.409zM690.603 504.678c0-20.659-15.991-37.406-35.721-37.406s-35.721 16.747-35.721 37.406c0 20.659 15.991 37.409 35.721 37.409s35.721-16.75 35.721-37.409z" />
<glyph unicode="&#xe937;" glyph-name="minus" d="M213.333 490.667h597.333c23.564 0 42.667-19.103 42.667-42.667s-19.103-42.667-42.667-42.667h-597.333c-23.564 0-42.667 19.103-42.667 42.667s19.103 42.667 42.667 42.667z" />
<glyph unicode="&#xe938;" glyph-name="recharge" d="M719.159 832h-414.317c-46.86-0.133-91.764-18.807-124.899-51.943s-51.81-78.039-51.943-124.899v-414.317c0.133-46.861 18.807-91.763 51.943-124.898s78.039-51.81 124.899-51.942h414.317c46.861 0.132 91.763 18.807 124.898 51.942s51.81 78.037 51.942 124.898v414.317c-0.132 46.86-18.807 91.764-51.942 124.899s-78.037 51.81-124.898 51.943zM669.692 414.903h-116.565c-0.896 0.009-1.788-0.162-2.615-0.503-0.832-0.341-1.587-0.845-2.219-1.476-0.636-0.636-1.139-1.391-1.481-2.223-0.341-0.828-0.512-1.719-0.503-2.615v-116.719c0-9.097-3.614-17.822-10.048-24.256s-15.159-10.048-24.26-10.048c-9.101 0-17.826 3.614-24.26 10.048s-10.048 15.159-10.048 24.256v116.719c0.009 0.896-0.162 1.788-0.503 2.615-0.341 0.832-0.845 1.587-1.481 2.223-0.631 0.631-1.387 1.135-2.219 1.476-0.828 0.341-1.719 0.512-2.615 0.503h-116.566c-4.505 0-8.966 0.887-13.129 2.611-4.162 1.728-7.945 4.254-11.13 7.441-3.186 3.183-5.713 6.967-7.437 11.127-1.724 4.164-2.612 8.623-2.612 13.129s0.887 8.969 2.612 13.129c1.724 4.164 4.251 7.945 7.437 11.132s6.968 5.713 11.13 7.437c4.163 1.724 8.624 2.611 13.129 2.611h116.566c0.896-0.009 1.788 0.166 2.615 0.503 0.832 0.341 1.587 0.845 2.219 1.481 0.636 0.631 1.139 1.387 1.481 2.219s0.512 1.719 0.503 2.62v116.563c0 9.099 3.614 17.825 10.048 24.259s15.159 10.048 24.26 10.048c9.101 0 17.826-3.614 24.26-10.048s10.048-15.16 10.048-24.259v-116.563c-0.030-0.913 0.128-1.818 0.461-2.667 0.329-0.849 0.828-1.621 1.468-2.27 0.636-0.653 1.395-1.169 2.236-1.519s1.745-0.525 2.654-0.521h116.565c9.101 0 17.826-3.614 24.26-10.048s10.048-15.159 10.048-24.256c0-9.101-3.614-17.826-10.048-24.26s-15.159-10.048-24.26-10.048v0.149z" />
<glyph unicode="&#xe939;" glyph-name="news" d="M425.122 246.703h-175.493c-9.597 0-17.376-7.838-17.376-17.506s7.779-17.506 17.376-17.506h175.493c9.596 0 17.374 7.838 17.374 17.506s-7.778 17.506-17.374 17.506zM687.492 246.703h-175.492c-9.596 0-17.374-7.838-17.374-17.506s7.778-17.506 17.374-17.506h175.492c9.596 0 17.378 7.838 17.378 17.506s-7.782 17.506-17.378 17.506zM687.492 684.308h-437.863c-9.597 0-17.376-7.837-17.376-17.504s7.779-17.504 17.376-17.504h437.863c9.596 0 17.378 7.837 17.378 17.504s-7.782 17.504-17.378 17.504zM687.492 596.786h-175.492c-9.596 0-17.374-7.837-17.374-17.504s7.778-17.504 17.374-17.504h175.492c9.596 0 17.378 7.837 17.378 17.504s-7.782 17.504-17.378 17.504zM687.492 509.265h-175.492c-9.596 0-17.374-7.838-17.374-17.506 0-9.664 7.778-17.502 17.374-17.502h175.492c9.596 0 17.378 7.838 17.378 17.502 0 9.668-7.782 17.506-17.378 17.506zM687.492 421.743h-175.492c-9.596 0-17.374-7.838-17.374-17.502 0-9.668 7.778-17.506 17.374-17.506h175.492c9.596 0 17.378 7.838 17.378 17.506 0 9.664-7.782 17.502-17.378 17.502zM687.492 334.221h-175.492c-9.596 0-17.374-7.834-17.374-17.502s7.778-17.506 17.374-17.506h175.492c9.596 0 17.378 7.838 17.378 17.506s-7.782 17.502-17.378 17.502zM425.122 334.221h-175.493c-9.597 0-17.376-7.834-17.376-17.502s7.779-17.506 17.376-17.506h175.493c9.596 0 17.374 7.838 17.374 17.506s-7.778 17.502-17.374 17.502zM425.122 596.786h-175.493c-9.597 0-17.376-7.837-17.376-17.504v-176.794c0-9.668 7.779-17.502 17.376-17.502h175.493c9.596 0 17.374 7.834 17.374 17.502v176.794c0 9.668-7.778 17.504-17.374 17.504zM407.747 419.994h-140.742v141.784h140.742v-141.784zM861.248 701.812h-52.126v52.513c0 19.304-15.59 35.008-34.752 35.008h-611.619c-19.162 0-34.751-15.705-34.751-35.008v-560.136c0-48.26 38.973-87.522 86.878-87.522h594.244c47.906 0 86.878 39.262 86.878 87.522v472.614c0 19.304-15.59 35.009-34.752 35.009zM861.248 194.189c0-28.958-23.381-52.514-52.126-52.514h-594.244c-28.743 0-52.127 23.556-52.127 52.514v560.136h611.619v-533.879c0-24.132 19.486-43.763 43.439-43.763 9.596 0 17.378 7.838 17.378 17.506s-7.782 17.502-17.378 17.502c-4.791 0-8.687 3.93-8.687 8.755v446.357h52.126v-472.614z" />
<glyph unicode="&#xe93a;" glyph-name="p2p" d="M497.451 218.795h-123.471l-61.825 61.811v79.676c0 10.539-8.577 19.025-19.030 19.025s-19.030-8.576-19.030-19.025v-87.625c0-5.094 2.055-9.826 5.629-13.397l72.993-72.977c3.573-3.575 8.398-5.628 13.49-5.628h131.423c10.543 0 19.029 8.576 19.029 19.025s-8.576 19.025-19.029 19.025l-0.179 0.090zM482.889 676.927h167.249l61.824-61.81v-79.675c0-10.539 8.58-19.025 19.034-19.025s19.029 8.576 19.029 19.025v87.625c0 5.091-2.057 9.825-5.628 13.398l-72.994 72.976c-3.575 3.573-8.311 5.627-13.491 5.627h-175.202c-10.543 0-19.029-8.575-19.029-19.025s8.576-19.025 19.029-19.025l0.179-0.090zM794.428 267.652c47.974 40.196 57.715 111.386 20.817 163.191-38.775 54.49-114.628 67.26-169.126 28.407-26.355-18.761-43.866-46.716-49.229-78.605-5.359-31.889 2.057-64.043 20.817-90.394 5.986-8.397 12.954-15.987 20.817-22.511-60.305-15.718-102.566-70.473-101.67-133.623v-29.21c0-22.596 18.402-40.909 41.007-40.909h277.41c22.601 0 40.917 18.402 40.917 40.909v29.12c0.892 63.151-41.365 117.905-101.67 133.713l-0.090-0.090zM680.781 234.782h71.386c60.309 0 105.873-43.319 105.873-100.753v-29.21c0-1.519-1.25-2.859-2.859-2.859h-277.41c-1.519 0-2.859 1.25-2.859 2.859v29.21c0 57.434 45.474 100.753 105.869 100.753zM633.344 360.282c0 45.82 37.252 83.068 83.085 83.068s83.089-37.248 83.089-83.068c0-45.824-37.257-83.072-83.089-83.072s-83.085 37.248-83.085 83.072zM487.351 455.142v29.12c0.892 63.151-41.365 117.905-101.673 133.715 47.888 40.195 57.714 111.384 20.817 163.191-38.775 54.397-114.627 67.17-169.126 28.404-26.356-18.758-43.867-46.715-49.228-78.604s2.055-64.044 20.817-90.394c5.986-8.396 12.955-15.988 20.817-22.509-60.396-15.899-102.655-70.653-101.761-133.715v-29.21c0-22.596 18.404-40.909 41.008-40.909h277.408c22.605 0 40.922 18.402 40.922 40.909zM272.034 585.107h72.010c29.841 0 57.001-10.719 76.567-30.102 18.493-18.4 28.678-43.5 28.678-70.653v-29.21c0-1.519-1.25-2.859-2.859-2.859h-277.408c-1.519 0-2.859 1.25-2.859 2.859v29.21c0 57.434 45.475 100.755 105.871 100.755zM224.593 710.604c0 45.822 37.256 83.069 83.089 83.069s83.089-37.247 83.089-83.069c0-45.822-37.256-83.069-83.089-83.069s-83.089 37.247-83.089 83.069z" />
<glyph unicode="&#xe93b;" glyph-name="plus" d="M512 789.333c25.6 0 42.667-17.067 42.667-42.667v-256h256c25.6 0 42.667-17.067 42.667-42.667s-17.067-42.667-42.667-42.667h-256v-256c0-25.6-17.067-42.667-42.667-42.667s-42.667 17.067-42.667 42.667v256h-256c-25.6 0-42.667 17.067-42.667 42.667s17.067 42.667 42.667 42.667h256v256c0 25.6 17.067 42.667 42.667 42.667z" />
<glyph unicode="&#xe93c;" glyph-name="prev" d="M591.1 448l-238.673-234.953c-14.792-14.562-14.792-38.234 0-52.791 14.791-14.562 38.837-14.562 53.629 0l265.488 261.346c14.831 14.562 14.831 38.234 0 52.796l-265.488 261.348c-14.792 14.561-38.837 14.561-53.629 0s-14.792-38.232 0-52.793l238.673-234.953z" />
<glyph unicode="&#xe93d;" glyph-name="qr-code" d="M665.6 64h153.6c42.419 0 76.8 34.381 76.8 76.8v153.6c0 14.131-11.469 25.6-25.6 25.6s-25.6-11.469-25.6-25.6v-153.6c0-14.131-11.469-25.6-25.6-25.6h-153.6c-14.131 0-25.6-11.469-25.6-25.6s11.469-25.6 25.6-25.6zM358.4 115.2h-153.6c-14.131 0-25.6 11.469-25.6 25.6v153.6c0 14.131-11.469 25.6-25.6 25.6s-25.6-11.469-25.6-25.6v-153.6c0-42.419 34.381-76.8 76.8-76.8h153.6c14.131 0 25.6 11.469 25.6 25.6s-11.469 25.6-25.6 25.6zM486.4 345.6v-153.6c0-14.131 11.469-25.6 25.6-25.6s25.6 11.469 25.6 25.6v153.6c0 14.131-11.469 25.6-25.6 25.6s-25.6-11.469-25.6-25.6zM435.2 345.6c0 14.131-11.469 25.6-25.6 25.6h-153.6c-14.131 0-25.6-11.469-25.6-25.6v-153.6c0-14.131 11.469-25.6 25.6-25.6h153.6c14.131 0 25.6 11.469 25.6 25.6v153.6zM793.6 345.6c0 14.131-11.469 25.6-25.6 25.6h-153.6c-14.131 0-25.6-11.469-25.6-25.6v-153.6c0-14.131 11.469-25.6 25.6-25.6h153.6c14.131 0 25.6 11.469 25.6 25.6v153.6zM384 320v-102.4h-102.4v102.4h102.4zM742.4 320v-102.4h-102.4v102.4h102.4zM486.4 422.4h25.6c14.131 0 25.6 11.469 25.6 25.6s-11.469 25.6-25.6 25.6h-25.6c-14.131 0-25.6-11.469-25.6-25.6s11.469-25.6 25.6-25.6zM256 422.4h128c14.131 0 25.6 11.469 25.6 25.6s-11.469 25.6-25.6 25.6h-128c-14.131 0-25.6-11.469-25.6-25.6s11.469-25.6 25.6-25.6zM716.8 473.6h25.6v-25.6c0-14.131 11.469-25.6 25.6-25.6s25.6 11.469 25.6 25.6v51.2c0 14.131-11.469 25.6-25.6 25.6h-51.2c-14.131 0-25.6-11.469-25.6-25.6s11.469-25.6 25.6-25.6zM640 448v128h25.6c14.131 0 25.6 11.469 25.6 25.6s-11.469 25.6-25.6 25.6h-51.2c-14.131 0-25.6-11.469-25.6-25.6v-153.6c0-14.131 11.469-25.6 25.6-25.6s25.6 11.469 25.6 25.6zM486.4 601.6v-51.2c0-14.131 11.469-25.6 25.6-25.6s25.6 11.469 25.6 25.6v51.2c0 14.131-11.469 25.6-25.6 25.6s-25.6-11.469-25.6-25.6zM435.2 704c0 14.131-11.469 25.6-25.6 25.6h-153.6c-14.131 0-25.6-11.469-25.6-25.6v-153.6c0-14.131 11.469-25.6 25.6-25.6h153.6c14.131 0 25.6 11.469 25.6 25.6v153.6zM358.4 832h-153.6c-42.419 0-76.8-34.381-76.8-76.8v-153.6c0-14.131 11.469-25.6 25.6-25.6s25.6 11.469 25.6 25.6v153.6c0 14.131 11.469 25.6 25.6 25.6h153.6c14.131 0 25.6 11.469 25.6 25.6s-11.469 25.6-25.6 25.6zM384 678.4v-102.4h-102.4v102.4h102.4zM665.6 780.8h153.6c14.131 0 25.6-11.469 25.6-25.6v-153.6c0-14.131 11.469-25.6 25.6-25.6s25.6 11.469 25.6 25.6v153.6c0 42.419-34.381 76.8-76.8 76.8h-153.6c-14.131 0-25.6-11.469-25.6-25.6s11.469-25.6 25.6-25.6zM512 678.4h230.4v-76.8c0-14.131 11.469-25.6 25.6-25.6s25.6 11.469 25.6 25.6v102.4c0 14.131-11.469 25.6-25.6 25.6h-256c-14.131 0-25.6-11.469-25.6-25.6s11.469-25.6 25.6-25.6z" />
</font>
</defs>
</svg>
